* Dettagli Torrent   globale  | Commenti (2) 


- Pianeta rosso - Red Planet (2000).720p.H264.ita.eng.Ac3-5.1.sub.ita.eng-MIRCrew -


Download via torrent:
Categoria bittorrent BDRip
Descrizione
Pianeta rosso - Red Planet (2000).720p.H264.ita.eng.Ac3-5.1.sub.ita.eng-MIRCrew



NO FOUND ONLY ORIGINAL RELEASE

My release is always in double track audio italian and Original audio
for select it use VLC or dvd player home
not use wmp

Pianeta rosso - Red Planet (2000)

Quality MIRCrew on HD 720p da 2,0 gb









Titolo originale Red Planet
Paese di produzione Stati Uniti d'America, Australia
Anno 2000
Durata 106 min
Rapporto 2,35:1
Genere fantascienza, azione
Regia Antony Hoffman
Soggetto Chuck Pfarrer
Sceneggiatura Chuck Pfarrer, Jonathan Lemkin



   Val Kilmer: Robby Gallagher
   Carrie-Anne Moss: Com. Kate Bowman
   Benjamin Bratt: Ten. Ted Santen
   Tom Sizemore: Dr. Quinn Burchenal
   Simon Baker: Chip Pettengill
   Terence Stamp: Dr. Bud Chantilas



Nell'anno 2057 la Terra è divenuta praticamente inabitabile a causa della sovrappopolazione e dell'inquinamento, che ha iniziato a causare seri problemi a partire dal 2025. Con l'intento di colonizzare Marte, negli ultimi anni sono state lanciate sul pianeta rosso delle sonde automatiche contenenti alghe geneticamente modificate per creare un'atmosfera respirabile dall'uomo, ma improvvisamente..............



Astronauts, and their robotic dog AMEE (Autonomous Mapping Evaluation and Evasion), search for solutions to save a dying Earth by searching on Mars, only to have the mission go terribly awry.
 
















General

Complete name                            : Pianeta rosso - Red Planet (2000).720p.h264.ita.eng.sub.ita.eng-MIRCrewPianeta rosso - Red Planet (2000).720p.h264.ita.eng.sub.ita.eng-MIRCrew.mkv
Format                                   : Matroska
Format version                           : Version 2
File size                                : 1.98 GiB
Duration                                 : 1h 46mn
Overall bit rate                         : 2 660 Kbps
Movie name                               :  MIRCrew
Encoded date                             : UTC 2020-06-21 21:22:43
Writing application                      : mkvmerge v5.8.0 ('No Sleep / Pillow&#39 built on Sep  2 2012 15:37:04
Writing library                          : Lavf54.63.100
ARTIST                                   : robbyrs
COMMENT                                  : MIRCrew
COPYRIGHT                                : MIRCrew

Video
ID                                       : 1
Format                                   : AVC
Format/Info                              : Advanced Video Codec
Format profile                           : [email protected]
Format settings, CABAC                   : Yes
Format settings, ReFrames                : 2 frames
Codec ID                                 : V_MPEG4/ISO/AVC
Duration                                 : 1h 46mn
Bit rate                                 : 1 900 Kbps
Width                                    : 1 280 pixels
Height                                   : 528 pixels
Display aspect ratio                     : 2.40:1
Frame rate mode                          : Variable
Frame rate                               : 23.976 fps
Color space                              : YUV
Chroma subsampling                       : 4:2:0
Bit depth                                : 8 bits
Scan type                                : Progressive
Bits/(Pixel*Frame)                       : 0.117
Stream size                              : 1.37 GiB (69%)
Title                                    : MIRCrew
Writing library                          : x264 core 130 r2273
Encoding settings                        : cabac=1 / ref=2 / deblock=1:-1:-1 / analyse=0x1:0x131 / me=hex / subme=7 / psy=1 / psy_rd=1.00:0.10 / mixed_ref=0 / me_range=16 / chroma_me=1 / trellis=1 / 8x8dct=0 / cqm=0 / deadzone=21,11 / fast_pskip=1 / chroma_qp_offset=-3 / threads=9 / lookahead_threads=1 / sliced_threads=0 / nr=0 / decimate=1 / interlaced=0 / bluray_compat=0 / constrained_intra=0 / bframes=3 / b_pyramid=0 / b_adapt=1 / b_bias=0 / direct=3 / weightb=1 / open_gop=0 / weightp=2 / keyint=230 / keyint_min=23 / scenecut=40 / intra_refresh=0 / rc_lookahead=40 / rc=abr / mbtree=1 / bitrate=1900 / ratetol=1.0 / qcomp=0.60 / qpmin=10 / qpmax=69 / qpstep=4 / vbv_maxrate=24000 / vbv_bufsize=24000 / nal_hrd=none / ip_ratio=1.40 / aq=1:1.00
Language                                 : Italian
Default                                  : Yes
Forced                                   : No
DURATION                                 : 01:46:29.342000000
NUMBER_OF_FRAMES                         : 153191
NUMBER_OF_BYTES                          : 1898751252
_STATISTICS_WRITING_APP                  : mkvmerge v20.0.0 ('I Am The Sun&#39 64-bit
_STATISTICS_WRITING_DATE_UTC             : 2019-09-02 14:15:13
_STATISTICS_TAGS                         : BPS DURATION NUMBER_OF_FRAMES NUMBER_OF_BYTES

Audio #1
ID                                       : 2
Format                                   : AC-3
Format/Info                              : Audio Coding 3
Mode extension                           : CM (complete main)
Codec ID                                 : A_AC3
Duration                                 : 1h 46mn
Bit rate mode                            : Constant
Bit rate                                 : 384 Kbps
Channel(s)                               : 6 channels
Channel positions                        : Front: L C R, Side: L R, LFE
Sampling rate                            : 48.0 KHz
Bit depth                                : 16 bits
Compression mode                         : Lossy
Delay relative to video                  : -5ms
Stream size                              : 293 MiB (14%)
Title                                    : Ita Ac3 5.1
Language                                 : Italian
Default                                  : Yes
Forced                                   : No
DURATION                                 : 01:46:30.357000000
NUMBER_OF_FRAMES                         : 299548
NUMBER_OF_BYTES                          : 178998261
_STATISTICS_WRITING_APP                  : mkvmerge v20.0.0 ('I Am The Sun&#39 64-bit
_STATISTICS_WRITING_DATE_UTC             : 2019-09-02 14:15:13
_STATISTICS_TAGS                         : BPS DURATION NUMBER_OF_FRAMES NUMBER_OF_BYTES

Audio #2
ID                                       : 3
Format                                   : AC-3
Format/Info                              : Audio Coding 3
Mode extension                           : CM (complete main)
Codec ID                                 : A_AC3
Duration                                 : 1h 46mn
Bit rate mode                            : Constant
Bit rate                                 : 384 Kbps
Channel(s)                               : 6 channels
Channel positions                        : Front: L C R, Side: L R, LFE
Sampling rate                            : 48.0 KHz
Bit depth                                : 16 bits
Compression mode                         : Lossy
Delay relative to video                  : -5ms
Stream size                              : 293 MiB (14%)
Title                                    : Eng Ac3 5.1
Language                                 : English
Default                                  : No
Forced                                   : No
DURATION                                 : 01:46:30.314000000
NUMBER_OF_FRAMES                         : 299546
NUMBER_OF_BYTES                          : 178995575
_STATISTICS_WRITING_APP                  : mkvmerge v20.0.0 ('I Am The Sun&#39 64-bit
_STATISTICS_WRITING_DATE_UTC             : 2019-09-02 14:15:13
_STATISTICS_TAGS                         : BPS DURATION NUMBER_OF_FRAMES NUMBER_OF_BYTES




Info: Per scaricare devi usare un client come uTorrent o Transmission
AnnounceURL
udp://tracker.torrent.eu.org:451/announce
Hash 61c485e5e09c086a26f7a9c52efac6ab29f75193
Peers seeds: 25 , leech: 3
Size 1.98 GB
Completato 673x
Aggiunto 28.06.20 - 18:06:36
Uploader   robbyrs
Votazione (Voti: 0)


Condividi questo bittorrent:


html/blog:


bbcode/forum:




Aggiungi Commento
Ultimi commenti
  
Audio Stereo, parlato in Mono. Non ho parole.

30/06 02.17
 enkenkenkenk   
non scaricatelo si sente il parlato solo in mono . mi spieghi come hai fatto a fare audio stereo e parlato solo mono ?
29/06 14.46
Tutti commenti (2)