* Dettagli Torrent   globale  | Commenti (0) 


- Shameless.US.S10E07-09.1080p.WEBMux.iTALiAN.SUBBED -


Download via torrent:
Categoria bittorrent SerieTv
Descrizione


[size=36pt]Shameless - Stagione 10[/size]




Titolo originale Shameless
Paese Stati Uniti d'America
Anno 2011 – in produzione
Formato serie TV
Genere commedia drammatica, dramma familiare
Stagioni 10
Episodi 122
Durata 40-50 min (episodio)
Lingua originale inglese
Rapporto 16:9



Il dramma segue le vicende di una famiglia disfunzionale di Chicago composta di sei fratelli e sorelle; la figlia maggiore, Fiona, è in pratica la persona più responsabile della casa, visto che il capofamiglia, Frank Gallagher, è un mediocre impiegato che preferisce occuparsi della bottiglia piuttosto che della sua famiglia.


[spoiler][/spoiler]


[spoiler]
General
Unique ID : 13507267313721917570052123687351172418 (0xA2967B1EC31FC024791E7A9ADBB3D42)
Complete name : C:UsersAdministratorVideosShameless S10Shameless.US.S10E01.We.Few.We.Lucky.Few.We.Band.of.Gallaghers.1080p.WEBMux.ITA.ENG.x264-BlackBit.mkv
Format : Matroska
Format version : Version 4
File size : 4.26 GiB
Duration : 56 min 58 s
Overall bit rate : 10.7 Mb/s
Encoded date : UTC 2020-03-16 21:49:42
Writing application : mkvmerge v44.0.0 ('Domino&#39 64-bit
Writing library : libebml v1.3.10 + libmatroska v1.5.2

Video
ID : 1
Format : AVC
Format/Info : Advanced Video Codec
Format profile : [email protected]
Format settings : CABAC / 4 Ref Frames
Format settings, CABAC : Yes
Format settings, Reference : 4 frames
Codec ID : V_MPEG4/ISO/AVC
Duration : 56 min 58 s
Bit rate mode : Constant
Bit rate : 10 000 kb/s
Width : 1 920 pixels
Height : 1 080 pixels
Display aspect ratio : 16:9
Frame rate mode : Constant
Frame rate : 23.976 (24000/1001) FPS
Color space : YUV
Chroma subsampling : 4:2:0
Bit depth : 8 bits
Scan type : Progressive
Bits/(Pixel*Frame) : 0.201
Stream size : 3.93 GiB (92%)
Default : Yes
Forced : Yes
Color range : Limited
Color primaries : BT.709
Transfer characteristics : BT.709
Matrix coefficients : BT.709

Audio #1
ID : 2
Format : AC-3
Format/Info : Audio Coding 3
Commercial name : Dolby Digital
Codec ID : A_AC3
Duration : 56 min 58 s
Bit rate mode : Constant
Bit rate : 192 kb/s
Channel(s) : 2 channels
Channel layout : L R
Sampling rate : 48.0 kHz
Frame rate : 31.250 FPS (1536 SPF)
Compression mode : Lossy
Stream size : 78.2 MiB (2%)
Language : Italian
Service kind : Complete Main
Default : Yes
Forced : Yes

Audio #2
ID : 3
Format : E-AC-3
Format/Info : Enhanced AC-3
Commercial name : Dolby Digital Plus
Codec ID : A_EAC3
Duration : 56 min 58 s
Bit rate mode : Constant
Bit rate : 640 kb/s
Channel(s) : 6 channels
Channel layout : L R C LFE Ls Rs
Sampling rate : 48.0 kHz
Frame rate : 31.250 FPS (1536 SPF)
Compression mode : Lossy
Delay relative to video : 18 ms
Stream size : 261 MiB (6%)
Language : English
Service kind : Complete Main
Default : No
Forced : No

Text #1
ID : 4
Format : UTF-8
Codec ID : S_TEXT/UTF8
Codec ID/Info : UTF-8 Plain Text
Duration : 55 min 7 s
Bit rate : 68 b/s
Count of elements : 894
Stream size : 27.6 KiB (0%)
Language : Italian
Default : No
Forced : No

Text #2
ID : 5
Format : UTF-8
Codec ID : S_TEXT/UTF8
Codec ID/Info : UTF-8 Plain Text
Duration : 55 min 11 s
Bit rate : 86 b/s
Count of elements : 1318
Stream size : 34.8 KiB (0%)
Title : SDH
Language : English
Default : No
Forced : No[/spoiler]
Info: Per scaricare devi usare un client come uTorrent o Transmission
AnnounceURL
udp://tracker.coppersurfer.tk:6969/announce
Hash aceaad9eb7e2f727033f831d05b054ef6aaa51b6
Peers seeds: 17 , leech: 8
Size 11.82 GB
Completato 8x
Aggiunto 14.06.20 - 21:06:11
Uploader Anonymous
Votazione (Voti: 0)


Condividi questo bittorrent:


html/blog:


bbcode/forum:




Aggiungi Commento