* Dettagli Torrent   globale  | Commenti (0) 


- Space.Force.S01E01-10.iTA.ENG.1080p.WEBDL.DDP5.1.Atmos.MultiSubs.x264-ODS -


Download via torrent:
Categoria bittorrent SerieTv
Descrizione





GRUPPO TELEGRAM PER RIMANERE
SEMPRE AGGIORNATO SULLE NOVITA

https://t.me/solotorrentitaliani

LE MIGLIORI ANTEPRIME SOLO SU
http://theodyssey.cc/





Titolo originale Space Force
Paese Stati Uniti d'America
Anno 2020 – in produzione
Formato serie TV
Genere commedia
Stagioni 1
Episodi 10
Durata 30 min (episodio)


TRAMA
La Casa Bianca richiede all'esercito degli Stati Uniti di fondare l'aeronautica spaziale, che si chiamerà Space Force.


SCREENSHOT




REPORT
[spoiler]
Format                                   : Matroska
Format version                           : Version 4
File size                                : 1.31 GiB
Duration                                 : 36 min 6 s
Overall bit rate mode                    : Variable
Overall bit rate                         : 5 194 kb/s
Encoded date                             : UTC 2020-05-29 10:17:39
Writing application                      : mkvmerge v44.0.0 ('Domino&#39 64-bit
Writing library                          : libebml v1.3.10 + libmatroska v1.5.2
Attachments                              : theodyssey.cc.jpg / theodyssey.cc.bmp

Video
ID                                       : 1
Format                                   : AVC
Format/Info                              : Advanced Video Codec
Format profile                           : [email protected]
Format settings                          : CABAC / 3 Ref Frames
Format settings, CABAC                   : Yes
Format settings, Reference frames        : 3 frames
Codec ID                                 : V_MPEG4/ISO/AVC
Duration                                 : 36 min 6 s
Bit rate mode                            : Variable
Bit rate                                 : 3 756 kb/s
Nominal bit rate                         : 4 020 kb/s
Maximum bit rate                         : 6 030 kb/s
Width                                    : 1 920 pixels
Height                                   : 1 080 pixels
Display aspect ratio                     : 16:9
Frame rate mode                          : Constant
Frame rate                               : 23.976 (24000/1001) FPS
Color space                              : YUV
Chroma subsampling                       : 4:2:0
Bit depth                                : 8 bits
Scan type                                : Progressive
Bits/(Pixel*Frame)                       : 0.076
Stream size                              : 970 MiB (72%)
Writing library                          : x264 core 148 r2717 0d2410d
Encoding settings                        : cabac=1 / ref=3 / deblock=1:0:0 / analyse=0x1:0x111 / me=umh / subme=10 / psy=1 / psy_rd=1.00:0.00 / mixed_ref=1 / me_range=24 / chroma_me=1 / trellis=2 / 8x8dct=0 / cqm=0 / deadzone=21,11 / fast_pskip=1 / chroma_qp_offset=-2 / threads=8 / lookahead_threads=1 / sliced_threads=0 / nr=0 / decimate=1 / interlaced=0 / bluray_compat=0 / stitchable=1 / constrained_intra=0 / bframes=2 / b_pyramid=0 / b_adapt=2 / b_bias=0 / direct=3 / weightb=1 / open_gop=0 / weightp=2 / keyint=250 / keyint_min=23 / scenecut=0 / intra_refresh=0 / rc_lookahead=48 / rc=2pass / mbtree=1 / bitrate=4020 / ratetol=1.0 / qcomp=0.50 / qpmin=6 / qpmax=51 / qpstep=4 / cplxblur=20.0 / qblur=0.5 / vbv_maxrate=6030 / vbv_bufsize=8040 / nal_hrd=vbr / filler=0 / ip_ratio=1.40 / aq=1:1.00
Default                                  : Yes
Forced                                   : No

Audio #1
ID                                       : 2
Format                                   : E-AC-3 JOC
Format/Info                              : Enhanced AC-3 with Joint Object Coding
Commercial name                          : Dolby Digital Plus with Dolby Atmos
Codec ID                                 : A_EAC3
Duration                                 : 36 min 6 s
Bit rate mode                            : Constant
Bit rate                                 : 768 kb/s
Channel(s)                               : 6 channels
Channel layout                           : L R C LFE Ls Rs
Sampling rate                            : 48.0 kHz
Frame rate                               : 31.250 FPS (1536 SPF)
Compression mode                         : Lossy
Stream size                              : 198 MiB (15%)
Title                                    : English
Language                                 : English
Service kind                             : Complete Main
Default                                  : No
Forced                                   : No
Complexity index                         : 16
Number of dynamic objects                : 15
Bed channel count                        : 1 channel
Bed channel configuration                : LFE

Audio #2
ID                                       : 33
Format                                   : E-AC-3
Format/Info                              : Enhanced AC-3
Commercial name                          : Dolby Digital Plus
Codec ID                                 : A_EAC3
Duration                                 : 36 min 6 s
Bit rate mode                            : Constant
Bit rate                                 : 640 kb/s
Channel(s)                               : 6 channels
Channel layout                           : L R C LFE Ls Rs
Sampling rate                            : 48.0 kHz
Frame rate                               : 31.250 FPS (1536 SPF)
Compression mode                         : Lossy
Stream size                              : 165 MiB (12%)
Language                                 : Italian
Service kind                             : Complete Main
Default                                  : Yes
Forced                                   : Yes

Text #32 Subs
[/spoiler]
Info: Per scaricare devi usare un client come uTorrent o Transmission
AnnounceURL
udp://tracker.torrent.eu.org:451/announce
Hash 8c807e19679d292d9502da4cad1ba86ea38f353c
Peers seeds: 14 , leech: 2
Size 11.57 GB
Completato 335x
Aggiunto 29.05.20 - 14:05:21
Uploader   zagor1961
Votazione (Voti: 0)


Condividi questo bittorrent:


html/blog:


bbcode/forum:




Aggiungi Commento