* Dettagli Torrent   globale  | Commenti (0) 


- La.Scomparsa.Di.Mia.Madre.2019.iTALiAN.AC3.WEBDL.XviD-ODS -


Download via torrent:
Categoria bittorrent BDRip
Descrizione



[size=14pt]...::: INFO :::...[/size]
Genere: Documentario
Durata: 94 min
Regia: Beniamino Barrese
Sceneggiatura: Beniamino Barrese
Produttori: Filippo Macelloni, Beniamino Barrese
Fotografia: Beniamino Barrese
Montaggio: Valentina Cicogna
Musica: Aaron Cupples
Case di produzione: Nanof

[size=14pt]...::: TRAMA :::...[/size]
La supermodella icona degli anni Sessanta Benedetta Barzini, oramai settantatreenne, pianifica la sua scomparsa ma deve fare i conti con il tentativo di suo figlio di realizzare un film su di lei.

[size=14pt]...::: SCREENSHOT :::...[/size]



[size=14pt]...::: REPORT :::...[/size]
[spoiler]Format                      : AVI
Format/Info                 : Audio Video Interleave
Format profile              : OpenDML
File size                   : 1.54 GiB
Duration                    : 1 h 33 min
Overall bit rate            : 2 358 kb/s
Movie name                  : ODS

Video
ID                          : 0
Format                      : MPEG-4 Visual
Format profile              : [email protected]
Format settings, BVOP       : No
Format settings, QPel       : No
Format settings, GMC        : No warppoints
Format settings, Matrix     : Default (H.263)
Codec ID                    : XVID
Codec ID/Hint               : XviD
Duration                    : 1 h 33 min
Bit rate                    : 1 960 kb/s
Width                       : 704 pixels
Height                      : 396 pixels
Display aspect ratio        : 16:9
Frame rate                  : 29.970 (30000/1001) FPS
Color space                 : YUV
Chroma subsampling          : 4:2:0
Bit depth                   : 8 bits
Scan type                   : Progressive
Compression mode            : Lossy
Bits/(Pixel*Frame)          : 0.235
Stream size                 : 1.28 GiB (83%)
Title                       : ODS
Writing library             : XviD 67

Audio
ID                          : 1
Format                      : AC-3
Format/Info                 : Audio Coding 3
Codec ID                    : 00002000-0000-0010-8000-00AA00389B71
Duration                    : 1 h 33 min
Bit rate                    : 384 kb/s
Channel(s)                  : 6 channels
Channel layout              : L R C LFE Lb Rb
Sampling rate               : 48.0 kHz
Bit depth                   : 16 bits
Compression mode            : Lossy
Stream size                 : 256 MiB (16%)
Interleave, duration        : 32  ms (0.96 video frame)
Title                       : ITA AC3

[/spoiler]
Info: Per scaricare devi usare un client come uTorrent o Transmission
AnnounceURL
udp://tracker.torrent.eu.org:451/announce
Hash b03d20d68a04a60a135749bb6cad915fc4e1c07e
Peers seeds: 27 , leech: 5
Size 1.54 GB
Completato 165x
Aggiunto 26.05.20 - 17:05:02
Uploader   zagor1961
Votazione (Voti: 0)


Condividi questo bittorrent:


html/blog:


bbcode/forum:




Aggiungi Commento