* Dettagli Torrent   globale  | Commenti (0) 


- Fuga.Dal.Mondo.Dei.Sogni.1992.iTA.ENG.AC3.WEBDL.1080p.x264-ODS -


Download via torrent:
Categoria bittorrent BDRip
Descrizione







GRUPPO TELEGRAM PER RIMANERE
SEMPRE AGGIORNATO SULLE NOVITA

https://t.me/solotorrentitaliani

LE MIGLIORI ANTEPRIME SOLO SU
http://theodyssey.cc/





[size=14pt]...::: INFO :::...[/size]
Genere: Animazione, Commedia, Sci-Fi & Fantasy
Durata: 102 min
Regia: Ralph Bakshi
Sceneggiatura: Michael Grais, Mark Victor
Produttori: Frank Mancuso Jr.
Fotografia: John A. Alonzo
Montaggio: Steven Mirkovich, Annamária Szántó Komlóssy
Musica: Mark Isham
Scenografia: Michael Corenblith
Costumi: Malissa Daniel
Case di produzione: Carrie Fisher

[size=14pt]...::: TRAMA :::...[/size]
La pellicola comincia nel 1945 a Las Vegas. Frank Harris (Brad Pitt) torna da sua madre e la invita a fare un giro sulla sua nuova motocicletta, ma, coinvolti in un incidente, la madre muore. Con un grido di dolore viene trasportato dallo scienziato-cartoon dottor Mustacchi (grazie ad uno "spillo" che conferisce straordinari poteri) in un'altra dimensione, completamente animata chiamata “Mondo Furbo”( "Cool World" in lingua originale). Nel 1992 il vignettista Jack Deebs (Gabriel Byrne) sta scontando in carcere una condanna per l'assassinio dell'uomo che ha trovato a letto con la propria moglie. Durante la sua pena detentiva, ha visioni del Mondo Furbo e della sexy, Holli (Kim Basinger). Jack passa il tempo generando una serie di fumetti basata sulle sue visioni del Mondo Furbo. Subito dopo la scarcerazione dalla prigione torna a casa sua a Las Vegas, dove Jack viene trasportato nel Mondo Furbo da Holli.

[size=14pt]...::: SCREENSHOT :::...[/size]


[size=14pt]...::: REPORT :::...[/size]
[spoiler]Format                      : Matroska
Format version              : Version 4
File size                   : 10.8 GiB
Duration                    : 1 h 41 min
Overall bit rate mode       : Variable
Overall bit rate            : 15.2 Mb/s
Encoded date                : UTC 2020-05-17 10:39:25
Writing application         : mkvmerge v45.0.0 ('Heaven in Pennies&#39 64-bit
Writing library             : libebml v1.3.10 + libmatroska v1.5.2

Video
ID                          : 1
Format                      : AVC
Format/Info                 : Advanced Video Codec
Format profile              : [email protected]
Format settings             : CABAC / 4 Ref Frames
Format settings, CABAC      : Yes
Format settings, Reference  : 4 frames
Codec ID                    : V_MPEG4/ISO/AVC
Duration                    : 1 h 41 min
Bit rate mode               : Variable
Bit rate                    : 14.2 Mb/s
Maximum bit rate            : 15.0 Mb/s
Width                       : 1 920 pixels
Height                      : 1 080 pixels
Display aspect ratio        : 16:9
Frame rate mode             : Constant
Frame rate                  : 23.976 (24000/1001) FPS
Color space                 : YUV
Chroma subsampling          : 4:2:0
Bit depth                   : 8 bits
Scan type                   : Progressive
Bits/(Pixel*Frame)          : 0.286
Stream size                 : 10.1 GiB (93%)
Writing library             : x264 core 148 r2623 d5b2374
Encoding settings           : cabac=1 / ref=4 / deblock=1:-1:-1 / analyse=0x3:0x133 / me=umh / subme=9 / psy=1 / psy_rd=1.00:0.15 / mixed_ref=1 / me_range=24 / chroma_me=1 / trellis=2 / 8x8dct=1 / cqm=0 / deadzone=21,11 / fast_pskip=1 / chroma_qp_offset=-3 / threads=34 / lookahead_threads=5 / sliced_threads=0 / nr=150 / decimate=1 / interlaced=0 / bluray_compat=0 / constrained_intra=0 / bframes=8 / b_pyramid=2 / b_adapt=2 / b_bias=0 / direct=3 / weightb=1 / open_gop=0 / weightp=2 / keyint=120 / keyint_min=61 / scenecut=0 / intra_refresh=0 / rc_lookahead=120 / rc=crf / mbtree=1 / crf=18.0 / qcomp=0.60 / qpmin=0 / qpmax=69 / qpstep=4 / vbv_maxrate=15000 / vbv_bufsize=31250 / crf_max=0.0 / nal_hrd=vbr / filler=0 / ip_ratio=1.40 / aq=3:1.00
Default                     : Yes
Forced                      : No
Color range                 : Limited
Color primaries             : BT.709
Transfer characteristics    : BT.709
Matrix coefficients         : BT.709

Audio #1
ID                          : 2
Format                      : E-AC-3
Format/Info                 : Enhanced AC-3
Commercial name             : Dolby Digital Plus
Codec ID                    : A_EAC3
Duration                    : 1 h 41 min
Bit rate mode               : Constant
Bit rate                    : 640 kb/s
Channel(s)                  : 6 channels
Channel layout              : L R C LFE Ls Rs
Sampling rate               : 48.0 kHz
Frame rate                  : 31.250 FPS (1536 SPF)
Compression mode            : Lossy
Stream size                 : 465 MiB (4%)
Language                    : English
Service kind                : Complete Main
Default                     : No
Forced                      : No

Audio #2
ID                          : 5
Format                      : AC-3
Format/Info                 : Audio Coding 3
Commercial name             : Dolby Digital
Codec ID                    : A_AC3
Duration                    : 1 h 41 min
Bit rate mode               : Constant
Bit rate                    : 384 kb/s
Channel(s)                  : 6 channels
Channel layout              : L R C LFE Ls Rs
Sampling rate               : 48.0 kHz
Frame rate                  : 31.250 FPS (1536 SPF)
Bit depth                   : 16 bits
Compression mode            : Lossy
Delay relative to video     : 324 ms
Stream size                 : 279 MiB (3%)
Title                       : ITA
Language                    : Italian
Service kind                : Complete Main
Default                     : Yes
Forced                      : Yes

Text #1
ID                          : 3
Format                      : UTF-8
Codec ID                    : S_TEXT/UTF8
Codec ID/Info               : UTF-8 Plain Text
Duration                    : 1 h 41 min
Bit rate                    : 45 b/s
Count of elements           : 1642
Stream size                 : 34.1 KiB (0%)
Language                    : English
Default                     : No
Forced                      : No

Text #2
ID                          : 4
Format                      : UTF-8
Codec ID                    : S_TEXT/UTF8
Codec ID/Info               : UTF-8 Plain Text
Duration                    : 1 h 34 min
Bit rate                    : 38 b/s
Count of elements           : 676
Stream size                 : 26.8 KiB (0%)
Language                    : Italian
Default                     : No
Forced                      : No




Info: Per scaricare devi usare un client come uTorrent o Transmission
AnnounceURL
udp://tracker.torrent.eu.org:451/announce
Hash 3aed42e371a2441d5f63dec3b73aec11e8327ad0
Peers seeds: 10 , leech: 4
Size 10.82 GB
Completato 225x
Aggiunto 17.05.20 - 16:05:48
Uploader   zagor1961
Votazione (Voti: 0)


Condividi questo bittorrent:


html/blog:


bbcode/forum:




Aggiungi Commento