* Dettagli Torrent   globale  | Commenti (0) 


- Alice.E.Il.Sindaco.2019.iTALiAN.AC3.1080p.Bluray.x264-oDySSey -


Download via torrent:
Categoria bittorrent BDRip
Descrizione





GRUPPO TELEGRAM PER RIMANERE
SEMPRE AGGIORNATO SULLE NOVITA

https://t.me/solotorrentitaliani
LE MIGLIORI ANTEPRIME SOLO SU
http://theodyssey.cc/



...::: INFO :::...
Genere: Commedia, Drammatica
Durata: 103 min
Regia: Nicolas Pariser
Sceneggiatura: Nicolas Pariser
Produttori: Geneviève Lemal, Emmanuel Agneray
Fotografia: Sébastien Buchmann
Montaggio: Christel Dewynter
Musica: Benjamin Esdraffo
Case di produzione: Stephen Elliott, SCOPE Pictures, ARTE France Cinéma, Auvergne Rhône-Alpes Cinéma, Les films du 10

...::: TRAMA :::...
Alice e il sindaco, film diretto da Nicolas Pariser, è la storia del sindaco di Lione, Paul Théraneau (Fabrice Luchini) in preda a una vera e propria crisi esistenziale. Dopo anni di fervente attività politica, l'uomo non ha più nessuna idea sul da farsi. Per far fronte a questo problema, Paul ingaggia una giovane e brillante filosofa di nome Alice Heimann (Anaïs Demoustier). Il dialogo tra i due, completamente opposti l'uno all'altro, permetterà loro di avvicinarsi, confrontarsi e sconvolgere le loro solide certezze.

...::: SCREENSHOT :::...




Format                      : Matroska
Format version              : Version 4
File size                   : 9.73 GiB
Duration                    : 1 h 44 min
Overall bit rate mode       : Variable
Overall bit rate            : 13.3 Mb/s
Encoded date                : UTC 2020-05-03 13:19:01
Writing application         : mkvmerge v45.0.0 ('Heaven in Pennies&#39 64-bit
Writing library             : libebml v1.3.10 + libmatroska v1.5.2

Video
ID                          : 1
Format                      : AVC
Format/Info                 : Advanced Video Codec
Format profile              : [email protected]
Format settings             : CABAC / 4 Ref Frames
Format settings, CABAC      : Yes
Format settings, Reference  : 4 frames
Format settings, GOP        : M=3, N=24
Codec ID                    : V_MPEG4/ISO/AVC
Duration                    : 1 h 44 min
Bit rate mode               : Variable
Bit rate                    : 12.9 Mb/s
Maximum bit rate            : 16.2 Mb/s
Width                       : 1 920 pixels
Height                      : 1 080 pixels
Display aspect ratio        : 16:9
Frame rate mode             : Constant
Frame rate                  : 24.000 FPS
Color space                 : YUV
Chroma subsampling          : 4:2:0
Bit depth                   : 8 bits
Scan type                   : Progressive
Bits/(Pixel*Frame)          : 0.260
Stream size                 : 9.45 GiB (97%)
Default                     : Yes
Forced                      : No
Color range                 : Limited
Color primaries             : BT.709
Transfer characteristics    : BT.709
Matrix coefficients         : BT.709

Audio
ID                          : 2
Format                      : AC-3
Format/Info                 : Audio Coding 3
Commercial name             : Dolby Digital
Codec ID                    : A_AC3
Duration                    : 1 h 44 min
Bit rate mode               : Constant
Bit rate                    : 384 kb/s
Channel(s)                  : 6 channels
Channel layout              : L R C LFE Ls Rs
Sampling rate               : 48.0 kHz
Frame rate                  : 31.250 FPS (1536 SPF)
Bit depth                   : 16 bits
Compression mode            : Lossy
Stream size                 : 288 MiB (3%)
Language                    : Italian
Service kind                : Complete Main
Default                     : Yes
Forced                      : No




Info: Per scaricare devi usare un client come uTorrent o Transmission
AnnounceURL
udp://tracker.torrent.eu.org:451/announce
Hash cced987f81ae1e4c811abc32796d404cd80af6d2
Peers seeds: 41 , leech: 18
Size 9.73 GB
Completato 588x
Aggiunto 04.05.20 - 01:05:25
Uploader   zagor1961
Votazione (Voti: 1)


Condividi questo bittorrent:


html/blog:


bbcode/forum:




Aggiungi Commento