* Dettagli Torrent   globale  | Commenti (0) 


- Il.Principe.Dimenticato.2020.iTALiAN.AC3.WEBDL.x264-oDySSey -


Download via torrent:
Categoria bittorrent BDRip
Descrizione




GRUPPO TELEGRAM PER RIMANERE
SEMPRE AGGIORNATO SULLE NOVITA

https://t.me/solotorrentitaliani


Visita oDySSey Crew
Titolo originale: Le prince oublié
Conosciuto anche come:
Nazione: Francia
Anno: 2020
Genere: Avventura, Commedia, Family
Durata: 101'
Regia: Michel Hazanavicius
Cast: Omar Sy, Bérénice Bejo, François Damiens, Sarah Gaye, Keyla Fala, Néotis Ronzon, Philippe Vieux, Philippe Uchan
Produzione: Prélude, Pathé, StudioCanal
Distribuzione: 01 Distribution
Data di uscita: 24 Aprile 2020 (on demand)



Ogni notte mentre Sofia si addormenta, suo padre Djibi la porta in "Storyland", uno studio di film fantasy in cui prendono vita le loro straordinarie avventure fiabesche con Djibi nel ruolo principale dell'eroico Principe Azzurro





General
Unique ID                   : 122428284460365542986058796882421573354 (0x5C1AD474DD6D7D34A4D50ACA758B66EA)
Complete name               : G:VideoVideoIl.Principe.Dimenticato.iTALiAN.AC3.WEBDL.x264-oDySSey.mkv
Format                      : Matroska
Format version              : Version 4
File size                   : 1.80 GiB
Duration                    : 1 h 42 min
Overall bit rate mode       : Constant
Overall bit rate            : 2 514 kb/s
Movie name                  :  / Encoding by - [oDySSey] Crew /
Encoded date                : UTC 2020-04-24 16:29:30
Writing application         : mkvmerge v45.0.0 ('Heaven in Pennies&#39 64-bit
Writing library             : libebml v1.3.10 + libmatroska v1.5.2
Attachments                 : theodyssey.cc.rar

Video
ID                          : 1
Format                      : AVC
Format/Info                 : Advanced Video Codec
Format profile              : [email protected]
Format settings             : CABAC / 1 Ref Frames
Format settings, CABAC      : Yes
Format settings, Reference  : 1 frame
Format settings, GOP        : M=1, N=30
Codec ID                    : V_MPEG4/ISO/AVC
Duration                    : 1 h 42 min
Bit rate mode               : Constant
Bit rate                    : 2 222 kb/s
Width                       : 704 pixels
Height                      : 320 pixels
Display aspect ratio        : 2.2:1
Frame rate mode             : Constant
Frame rate                  : 29.970 (29970/1000) FPS
Original frame rate         : 29.970 (30000/1001) FPS
Color space                 : YUV
Chroma subsampling          : 4:2:0
Bit depth                   : 8 bits
Scan type                   : Progressive
Bits/(Pixel*Frame)          : 0.329
Stream size                 : 1.53 GiB (85%)
Title                       :  / Encoding by - [oDySSey] Crew /
Default                     : Yes
Forced                      : Yes

Audio
ID                          : 2
Format                      : AC-3
Format/Info                 : Audio Coding 3
Commercial name             : Dolby Digital
Codec ID                    : A_AC3
Duration                    : 1 h 42 min
Bit rate mode               : Constant
Bit rate                    : 384 kb/s
Channel(s)                  : 6 channels
Channel layout              : L R C LFE Ls Rs
Sampling rate               : 48.0 kHz
Frame rate                  : 31.250 FPS (1536 SPF)
Bit depth                   : 16 bits
Compression mode            : Lossy
Delay relative to video     : -5 ms
Stream size                 : 282 MiB (15%)
Title                       : ac3 ita
Service kind                : Complete Main
Default                     : Yes
Forced                      : Yes

Info: Per scaricare devi usare un client come uTorrent o Transmission
AnnounceURL
udp://tracker.openbittorrent.com:1337/announce
Hash 10993785d6b8813a72b03997adec84faa2c9a6c3
Peers seeds: 46 , leech: 6
Size 1.80 GB
Completato 664x
Aggiunto 25.04.20 - 00:04:16
Uploader   zagor1961
Votazione (Voti: 0)


Condividi questo bittorrent:


html/blog:


bbcode/forum:




Aggiungi Commento