* Dettagli Torrent   globale  | Commenti (0) 


- A.Bluebird.in.My.Heart.2018.BDRip.AC3.ITA -


Download via torrent:
Categoria bittorrent BDRip
Descrizione




Titolo: A Bluebird in My Heart
Genere: Drammatico, Thriller
Anno: 2018
Regia: Jeremie Guez
Cast: Roland Møller, Lola Le Lann, Veerle Baetens, Lubna Azabal, Jonathan Robert, Steven Struyven
PAESE: Belgio, Francia
DURATA:85 min



ex detenuto Danny (Roland Møller), che dopo un periodo in carcere, ottiene di scontare il tempo rimanente agli arresti domiciliari con una cavigliera elettronica. L'uomo vorrebbe condurre da questo momento in poi una vita tranquilla e trova rifugio nel motel gestito da Laurence (Veerle Baetens) - anche lei con un marito in carcere - dove inizia a fare diversi lavori in cambio di un tetto sulla testa. Qui Danny instaura un forte legame con la figlia della donna, Clara (Lola Le Lann). La ragazza ha un animo molto ribelle, ma vede nell'uomo quella figura paterna, che tanto manca nella sua vita; dal canto suo Danny cerca di rimanere distaccato, ma non riesce a non sentirsi legato a lei.
Il detenuto sembra aver trovato quello che desiderava una volta fuori di prigione, la tranquillità, ma questo clima sereno va in mille pezzi, quando Clara viene aggredita. Qualcosa di violento si risveglia in Danny, pronto a vendicare il male fatto alla ragazza...

[spoiler]Format                      : Matroska
Format version              : Version 2
File size                   : 1.01 GiB
Duration                    : 1 h 29 min
Overall bit rate            : 1 620 kb/s
Movie name                  : CineBlog01HD
Encoded date                : UTC 2020-04-09 08:31:01 / UTC 2020-04-09 08:31:01
Writing application         : Lavf54.63.104
Writing library             : Lavf54.63.104
FileExtension_Invalid       : mkv mk3d mka mks

Video
ID                          : 1
Format                      : MPEG-4 Visual
Format profile              : [email protected]
Format settings, BVOP       : No
Format settings, QPel       : No
Format settings, GMC        : No warppoints
Format settings, Matrix     : Default (H.263)
Codec ID                    : V_MPEG4/ISO/ASP
Codec ID/Info               : Advanced Simple Profile
Duration                    : 1 h 29 min
Bit rate                    : 1 140 kb/s
Width                       : 720 pixels
Height                      : 304 pixels
Display aspect ratio        : 2.35:1
Frame rate mode             : Constant
Frame rate                  : 24.000 FPS
Color space                 : YUV
Chroma subsampling          : 4:2:0
Bit depth                   : 8 bits
Scan type                   : Progressive
Compression mode            : Lossy
Bits/(Pixel*Frame)          : 0.217
Stream size                 : 728 MiB (70%)
Writing library             : Lavc54.92.100
Default                     : Yes
Forced                      : No

Audio
ID                          : 2
Format                      : AC-3
Format/Info                 : Audio Coding 3
Commercial name             : Dolby Digital
Codec ID                    : A_AC3
Duration                    : 1 h 29 min
Bit rate mode               : Constant
Bit rate                    : 448 kb/s
Channel(s)                  : 6 channels
Channel layout              : L R C LFE Ls Rs
Sampling rate               : 48.0 kHz
Frame rate                  : 31.250 FPS (1536 SPF)
Bit depth                   : 16 bits
Compression mode            : Lossy
Stream size                 : 286 MiB (28%)
Service kind                : Complete Main
Default                     : Yes
Forced                      : No

[/spoiler]



Info: Per scaricare devi usare un client come uTorrent o Transmission
AnnounceURL
udp://tracker.torrent.eu.org:451/announce
Hash 0ff6839da21afa3ef2fcef5aaffe842f018dd5dc
Peers seeds: 23 , leech: 5
Size 900.30 MB
Completato 440x
Aggiunto 10.04.20 - 14:04:36
Uploader   zagor1961
Votazione (Voti: 0)


Condividi questo bittorrent:


html/blog:


bbcode/forum:




Aggiungi Commento