* Dettagli Torrent   globale  | Commenti (0) 


- ---- LE IENE 22/12/2019 By Mul1n0 ---- XVID MP3 -


Download via torrent:
Categoria bittorrent BDRip
Descrizione
LE IENE 22/12/2019 By Mul1n0[/SIZE]



.: Scheda del filmato :.

Anno: 2019
Genere: INCHIESTA
Regia: DAVIDE PARENTI

.: Descrizione :.

Programma di approfondimento e di attuailtà che propone inchieste e reportage facendo uso di uno stile irriverente e satirico.

.: ScreenShot :.



.: Scheda tecnica :.

General
Complete name                            : C:LE IENE 22122019 By Mul1n0.avi
Format                                   : AVI
Format/Info                              : Audio Video Interleave
Format profile                           : OpenDML
File size                                : 2.74 GiB
Duration                                 : 3 h 17 min
Overall bit rate                         : 1 985 kb/s
Writing application                      : VirtualDubMod 1.5.4.1 (build 2178/release)
Writing library                          : VirtualDubMod build 2178/release

Video
ID                                       : 0
Format                                   : MPEG-4 Visual
Format profile                           : Advanced [email protected]
Format settings                          : Custom Matrix
Format settings, BVOP                    : No
Format settings, QPel                    : No
Format settings, GMC                     : No warppoints
Format settings, Matrix                  : Custom
Codec ID                                 : XVID
Codec ID/Hint                            : XviD
Duration                                 : 3 h 17 min
Bit rate                                 : 1 848 kb/s
Width                                    : 720 pixels
Height                                   : 400 pixels
Display aspect ratio                     : 16:9
Frame rate                               : 25.000 FPS
Color space                              : YUV
Chroma subsampling                       : 4:2:0
Bit depth                                : 8 bits
Scan type                                : Progressive
Compression mode                         : Lossy
Bits/(Pixel*Frame)                       : 0.257
Stream size                              : 2.55 GiB (93%)
Writing library                          : XviD 1.2.1 (UTC 2008-12-04)

Audio
ID                                       : 1
Format                                   : MPEG Audio
Format version                           : Version 1
Format profile                           : Layer 3
Format settings                          : Joint stereo / MS Stereo
Codec ID                                 : 55
Codec ID/Hint                            : MP3
Duration                                 : 3 h 17 min
Bit rate mode                            : Constant
Bit rate                                 : 128 kb/s
Channel(s)                               : 2 channels
Sampling rate                            : 48.0 kHz
Frame rate                               : 41.667 FPS (1152 SPF)
Compression mode                         : Lossy
Stream size                              : 181 MiB (6%)
Alignment                                : Aligned on interleaves
Interleave, duration                     : 80  ms (2.00 video frames)
Interleave, preload duration             : 504  ms
Writing library                          : LAME3.98r
Encoding settings                        : -m j -V 4 -q 2 -lowpass 17 -b 128














.: Note :.

Orario di seed e Banda disponibile:
24 / 24 Ai primi 10 completati
Info: Per scaricare devi usare un client come uTorrent o Transmission
AnnounceURL
udp://tracker.coppersurfer.tk:6969/announce
Hash e78b29dfdc6d9423b1e9db842c4f2b8a3b836e48
Peers seeds: 1 , leech: 1
Size 2.74 GB
Completato 165x
Aggiunto 23.12.19 - 16:12:58
Uploader   Sfrank77
Votazione (Voti: 1)


Condividi questo bittorrent:


html/blog:


bbcode/forum:




Aggiungi Commento