* Dettagli Torrent   globale  | Commenti (0) 


- ---- LE IENE 03/12/2019 By Mul1n0 ---- HEVC AAC -


Download via torrent:
Categoria bittorrent BDRip
Descrizione
LE IENE 03/12/2019 By Mul1n0[/SIZE]



.: Scheda del filmato :.

Anno: 2019
Genere: INCHIESTA
Regia: DAVIDE PARENTI

.: Descrizione :.

Programma di approfondimento e di attuailtà che propone inchieste e reportage facendo uso di uno stile irriverente e satirico.

.: ScreenShot :.



.: Scheda tecnica :.

General
Unique ID                                : 172177318910443553518332401868535750671 (0x8188253A77AEB1B2B9B9CF0B67B7E00F)
Complete name                            : C:
Format                                   : Matroska
Format version                           : Version 4
File size                                : 2.88 GiB
Duration                                 : 3 h 14 min
Overall bit rate                         : 2 121 kb/s
Movie name                               : script
Encoded date                             : UTC 2019-12-04 16:51:07
Writing application                      : mkvmerge v8.2.0 ('World of Adventure&#39 32bit
Writing library                          : libebml v1.3.1 + libmatroska v1.4.2

Video
ID                                       : 1
Format                                   : HEVC
Format/Info                              : High Efficiency Video Coding
Format profile                           : Main [email protected]@Main
Codec ID                                 : V_MPEGH/ISO/HEVC
Duration                                 : 3 h 14 min
Bit rate                                 : 1 991 kb/s
Width                                    : 1 920 pixels
Height                                   : 1 080 pixels
Display aspect ratio                     : 16:9
Frame rate mode                          : Constant
Frame rate                               : 25.000 FPS
Color space                              : YUV
Chroma subsampling                       : 4:2:0
Bit depth                                : 10 bits
Bits/(Pixel*Frame)                       : 0.038
Stream size                              : 2.71 GiB (94%)
Writing library                          : x265 1.7+382-7c83f7755422:[Windows][GCC 5.1.0][64 bit] 10bit
Encoding settings                        : wpp / ctu=64 / min-cu-size=8 / max-tu-size=32 / tu-intra-depth=1 / tu-inter-depth=1 / me=1 / subme=2 / merange=57 / no-rect / no-amp / max-merge=2 / temporal-mvp / no-early-skip / rdpenalty=0 / no-tskip / no-tskip-fast / strong-intra-smoothing / no-lossless / no-cu-lossless / no-constrained-intra / no-fast-intra / open-gop / no-temporal-layers / interlace=0 / keyint=250 / min-keyint=25 / scenecut=40 / rc-lookahead=20 / lookahead-slices=0 / bframes=4 / bframe-bias=0 / b-adapt=2 / ref=3 / limit-refs=0 / weightp / no-weightb / aq-mode=1 / aq-strength=2.00 / cbqpoffs=0 / crqpoffs=0 / rd=3 / psy-rd=0.30 / rdoq-level=0 / psy-rdoq=0.00 / signhide / deblock / sao / no-sao-non-deblock / b-pyramid / cutree / rc=2 / pass / bitrate=1990 / qcomp=0.60 / qpmin=0 / qpmax=51 / qpstep=4 / cplxblur=20.0 / qblur=0.5 / ipratio=1.40 / pbratio=1.30
Default                                  : Yes
Forced                                   : No

Audio
ID                                       : 2
Format                                   : AAC LC
Format/Info                              : Advanced Audio Codec Low Complexity
Codec ID                                 : A_AAC-2
Duration                                 : 3 h 14 min
Bit rate                                 : 128 kb/s
Channel(s)                               : 2 channels
Channel layout                           : L R
Sampling rate                            : 48.0 kHz
Frame rate                               : 46.875 FPS (1024 SPF)
Compression mode                         : Lossy
Stream size                              : 178 MiB (6%)
Default                                  : Yes
Forced                                   : No











.: Note :.

Orario di seed e Banda disponibile:
24 / 24 Ai primi 10 completati
Info: Per scaricare devi usare un client come uTorrent o Transmission
AnnounceURL
udp://tracker.coppersurfer.tk:6969/announce
Hash df19a52d1db3b2da1d500d01ce6b89f2bf8828de
Peers seeds: 4 , leech: 1
Size 2.88 GB
Completato 83x
Aggiunto 04.12.19 - 20:12:22
Uploader   Sfrank77
Votazione (Voti: 1)


Condividi questo bittorrent:


html/blog:


bbcode/forum:




Aggiungi Commento