* Dettagli Torrent   globale  | Commenti (0) 


- ---- CONCORDIA. UN ANNO DOPO (2019) BY Mul1no ---- Xvid mp3 -


Download via torrent:
Categoria bittorrent BDRip
Descrizione
CONCORDIA. UN ANNO DOPO (2019)
BY Mul1n0



.: Scheda del Documentario :.


Titolo originale:   CONCORDIA. UN ANNO DOPO
Nazionalità:   USA
Anno:  2019
Genere:   interviste, auto-aiuto
Regia:   NGC (a cura di)



.: Trama :.


Venerdì 13 gennaio 2012, ore 9.45 la nave da crociera Costa Concordia, con a bordo più di 4.000 passeggeri, colpisce uno scoglio che apre uno squarcio di 70 m nello scafo. La nave si incaglia di fronte all’isola del Giglio, 32 persone muoiono. I sopravvissuti hanno paragonato la loro odissea all’affondamento del Titanic.

Un anno dopo, per ricordare il primo anniversario della tragedia, questo film porterà nuove prove, filmati inediti, testimonianze di esperti e animazioni CGI per analizzare la vera storia del peggiore incidente marittimo degli ultimi anni.


.: ScreenShot :.









.: Scheda tecnica del filmato :.

General
Complete name                            : C:Concordia Un anno Dopo by Mul1n0 NGC.avi
Format                                   : AVI
Format/Info                              : Audio Video Interleave
File size                                : 700 MiB
Duration                                 : 44 min 23 s
Overall bit rate                         : 2 205 kb/s
Writing application                      : VirtualDubMod 1.5.4.1 (build 2178/release)
Writing library                          : VirtualDubMod build 2178/release

Video
ID                                       : 0
Format                                   : MPEG-4 Visual
Format profile                           : Advanced [email protected]
Format settings                          : Custom Matrix
Format settings, BVOP                    : No
Format settings, QPel                    : No
Format settings, GMC                     : No warppoints
Format settings, Matrix                  : Custom
Codec ID                                 : XVID
Codec ID/Hint                            : XviD
Duration                                 : 44 min 23 s
Bit rate                                 : 2 070 kb/s
Width                                    : 640 pixels
Height                                   : 368 pixels
Display aspect ratio                     : 1.739
Frame rate                               : 25.000 FPS
Color space                              : YUV
Chroma subsampling                       : 4:2:0
Bit depth                                : 8 bits
Scan type                                : Progressive
Compression mode                         : Lossy
Bits/(Pixel*Frame)                       : 0.351
Stream size                              : 657 MiB (94%)
Writing library                          : XviD 67

Audio
ID                                       : 1
Format                                   : MPEG Audio
Format version                           : Version 1
Format profile                           : Layer 3
Format settings                          : Joint stereo / MS Stereo
Codec ID                                 : 55
Codec ID/Hint                            : MP3
Duration                                 : 44 min 23 s
Bit rate mode                            : Constant
Bit rate                                 : 128 kb/s
Channel(s)                               : 2 channels
Sampling rate                            : 48.0 kHz
Frame rate                               : 41.667 FPS (1152 SPF)
Compression mode                         : Lossy
Stream size                              : 40.6 MiB (6%)
Alignment                                : Aligned on interleaves
Interleave, duration                     : 80  ms (2.00 video frames)
Interleave, preload duration             : 504  ms
Writing library                          : LAME3.98r
Encoding settings                        : -m j -V 4 -q 2 -lowpass 17 -b 128









.: Note :.

Orario di seed e Banda disponibile: ai primi 10 completati, buon download

Info: Per scaricare devi usare un client come uTorrent o Transmission
AnnounceURL
udp://tracker.coppersurfer.tk:6969/announce
Hash d6ef7982dcfd02b994a97fa1d259495ed8c46ef5
Peers seeds: 13 , leech: 0
Size 700.01 MB
Completato 748x
Aggiunto 17.11.19 - 19:11:36
Uploader   Sfrank77
Votazione (Voti: 0)


Condividi questo bittorrent:


html/blog:


bbcode/forum:




Aggiungi Commento