* Dettagli Torrent   globale  | Commenti (0) 


- LeIene 05-05-2019 BY Mul1n0 -


Download via torrent:
Categoria bittorrent BDRip
Descrizione
LE IENE 05/05/2019 By Mul1n0[/SIZE]



.: Scheda del filmato :.

Anno: 2019
Genere: INCHIESTA
Regia: DAVIDE PARENTI

.: Descrizione :.

Programma di approfondimento e di attuailtà che propone inchieste e reportage facendo uso di uno stile irriverente e satirico.

.: ScreenShot :.









.: Scheda tecnica :.

General
Unique ID                                : 243086166400292830605106872409210524115 (0xB6E0B1545F31702090A5D3A5D95C91D3)
Complete name                            : C:Le IENE 05-05-2019 BY Mul1n0.mkv
Format                                   : Matroska
Format version                           : Version 4 / Version 2
File size                                : 2.93 GiB
Duration                                 : 3 h 32 min
Overall bit rate                         : 1 979 kb/s
Movie name                               : script
Encoded date                             : UTC 2019-05-06 14:28:44
Writing application                      : mkvmerge v10.0.0 ('To Drown In You&#39 32bit
Writing library                          : libebml v1.3.4 + libmatroska v1.4.5

Video
ID                                       : 1
Format                                   : HEVC
Format/Info                              : High Efficiency Video Coding
Format profile                           : Main [email protected]@Main
Codec ID                                 : V_MPEGH/ISO/HEVC
Duration                                 : 3 h 32 min
Bit rate                                 : 1 849 kb/s
Width                                    : 1 920 pixels
Height                                   : 1 080 pixels
Display aspect ratio                     : 16:9
Frame rate mode                          : Constant
Frame rate                               : 25.000 FPS
Color space                              : YUV
Chroma subsampling                       : 4:2:0
Bit depth                                : 10 bits
Bits/(Pixel*Frame)                       : 0.036
Stream size                              : 2.74 GiB (93%)
Writing library                          : x265 2.2+30-fa52b516f5ff:[Windows][GCC 6.2.0][64 bit] 10bit
Encoding settings                        : cpuid=1173503 / frame-threads=6 / numa-pools=36 / wpp / no-pmode / no-pme / no-psnr / no-ssim / log-level=2 / input-csp=1 / input-res=1920x1080 / interlace=0 / total-frames=318270 / level-idc=0 / high-tier=1 / uhd-bd=0 / ref=3 / no-allow-non-conformance / no-repeat-headers / annexb / no-aud / no-hrd / info / hash=0 / no-temporal-layers / open-gop / min-keyint=25 / keyint=250 / bframes=4 / b-adapt=2 / b-pyramid / bframe-bias=0 / rc-lookahead=20 / lookahead-slices=6 / scenecut=40 / no-intra-refresh / ctu=64 / min-cu-size=8 / no-rect / no-amp / max-tu-size=32 / tu-inter-depth=1 / tu-intra-depth=1 / limit-tu=0 / rdoq-level=0 / complex-analysis=0.00 / signhide / no-tskip / nr-intra=0 / nr-inter=0 / no-constrained-intra / strong-intra-smoothing / max-merge=2 / limit-refs=3 / no-limit-modes / me=1 / subme=2 / merange=57 / temporal-mvp / weightp / no-weightb / no-analyze-src-pics / deblock=0:0 / sao / no-sao-non-deblock / rd=3 / no-early-skip / rskip / no-fast-intra / no-tskip-fast / no-cu-lossless / no-b-intra / rdpenalty=0 / psy-rd=2.00 / psy-rdoq=0.00 / no-rd-refine / analysis-mode=0 / no-lossless / cbqpoffs=0 / crqpoffs=0 / rc=abr / bitrate=1848 / qcomp=0.60 / qpstep=4 / stats-write=0 / stats-read=2 / cplxblur=20.0 / qblur=0.5 / ipratio=1.40 / pbratio=1.30 / aq-mode=1 / aq-strength=1.00 / cutree / zone-count=0 / no-strict-cbr / qg-size=32 / no-rc-grain / qpmax=69 / qpmin=0 / sar=1 / overscan=0 / videoformat=5 / range=0 / colorprim=2 / transfer=2 / colormatrix=2 / chromaloc=0 / display-window=0 / max-cll=0,0 / min-luma=0 / max-luma=1023 / log2-max-poc-lsb=8 / vui-timing-info / vui-hrd-info / slices=1 / opt-qp-pps / opt-ref-list-length-pps / no-multi-pass-opt-rps / scenecut-bias=0.05 / no-opt-cu-delta-qp / no-aq-motion
Default                                  : Yes
Forced                                   : No

Audio
ID                                       : 2
Format                                   : AAC
Format/Info                              : Advanced Audio Codec
Format profile                           : LC
Codec ID                                 : A_AAC-2
Duration                                 : 3 h 32 min
Bit rate                                 : 128 kb/s
Channel(s)                               : 2 channels
Channel positions                        : Front: L R
Sampling rate                            : 48.0 kHz
Frame rate                               : 46.875 FPS (1024 SPF)
Compression mode                         : Lossy
Stream size                              : 194 MiB (6%)
Default                                  : Yes
Forced                                   : No






.: Note :.

Orario di seed e Banda disponibile:
24 / 24 Ai primi 10 completati



Info: Per scaricare devi usare un client come uTorrent o Transmission
AnnounceURL
http://tracker.tntvillage.scambioetico.org:2710/announce
Hash 479f143a608f04e4a5873dae5364dfafe917187d
Peers seeds: 36 , leech: 10
Size 2.93 GB
Completato 38x
Aggiunto 06.05.19 - 22:05:55
Uploader   Sfrank77
Votazione (Voti: 0)


Condividi questo bittorrent:


html/blog:


bbcode/forum:




Aggiungi Commento