* Dettagli Torrent   globale  | Commenti (0) 


- I.Fratelli.Sisters.2019.iTALiAN.MD.BDRip.XViD- by Mul1n0 -


Download via torrent:
Categoria bittorrent BDRip
Descrizione
I Fratelli Sisters (2019)
BY Mul1n0


.: Scheda del Film :.


Titolo originale:  The Sisters Brothers
Nazionalità:   Usa
Anno:  2019
Genere:   western, commedia
Regia:   Jacques Audiard

Cast:      
   John C. Reilly: Eli Sisters
   Joaquin Phoenix: Charlie Sisters
   Jake Gyllenhaal: John Morris
   Riz Ahmed: Hermann Kermit Warm
   Rutger Hauer: Commodore
   Carol Kane: sig.ra Sisters
   Rebecca Root: Mayfield
   Ian Reddington: il padre
   Richard Brake: Rex
   Allison Tolman: ragazza al saloon









.: Trama :.


Oregon, 1851. Due fratelli, Charlie ed Eli, il primo impulsivo, scontroso, amante di vino e donne, il secondo più riflessivo e sensibile, lavorano insieme, ma non vanno sempre d'accordo, così battibecchi ed incomprensioni sono all'ordine del giorno. I Sisters sono pagati dal commodoro dell'Oregon per eliminare i suoi nemici in modo veloce ed efficace; la loro fama li precede e sono temuti da tutti gli abitanti del west. L'ultimo lavoro consiste nel far sparire un chimico, accusato di aver rubato al loro capo e che sembra aver scoperto il metodo per scovare l'oro dai letti dei fiumi. Non tutto però va come previsto. [2]

.: ScreenShot :.









.: Scheda tecnica del filmato :.


General
Complete name                            : C:I.Fratelli.Sisters.2019.iTALiAN.MD.BDRip.XViD-LFi-remastered.avi
Format                                   : AVI
Format/Info                              : Audio Video Interleave
File size                                : 1.87 GiB
Duration                                 : 2 h 1 min
Overall bit rate                         : 2 203 kb/s
Writing application                      : VirtualDubMod 1.5.10.2 (build 2540/release)
Writing library                          : VirtualDubMod build 2540/release

Video
ID                                       : 0
Format                                   : MPEG-4 Visual
Format profile                           : Advanced [email protected]
Format settings                          : BVOP2
Format settings, BVOP                    : 2
Format settings, QPel                    : No
Format settings, GMC                     : No warppoints
Format settings, Matrix                  : Default (MPEG)
Muxing mode                              : Packed bitstream
Codec ID                                 : XVID
Codec ID/Hint                            : XviD
Duration                                 : 2 h 1 min
Bit rate                                 : 1 549 kb/s
Width                                    : 720 pixels
Height                                   : 304 pixels
Display aspect ratio                     : 2.35:1
Frame rate                               : 23.976 (24000/1001) FPS
Color space                              : YUV
Chroma subsampling                       : 4:2:0
Bit depth                                : 8 bits
Scan type                                : Progressive
Compression mode                         : Lossy
Bits/(Pixel*Frame)                       : 0.295
Stream size                              : 1.32 GiB (70%)
Writing library                          : XviD 67

Audio #1
ID                                       : 1
Format                                   : AC-3
Format/Info                              : Audio Coding 3
Codec ID                                 : 2000
Duration                                 : 2 h 1 min
Bit rate mode                            : Constant
Bit rate                                 : 320 kb/s
Channel(s)                               : 2 channels
Channel positions                        : Front: L R
Sampling rate                            : 48.0 kHz
Frame rate                               : 31.250 FPS (1536 SPF)
Bit depth                                : 16 bits
Compression mode                         : Lossy
Stream size                              : 279 MiB (15%)
Alignment                                : Split accross interleaves
Interleave, duration                     : 42  ms (1.00 video frame)
Interleave, preload duration             : 500  ms
Service kind                             : Complete Main

Audio #2
ID                                       : 2
Format                                   : AC-3
Format/Info                              : Audio Coding 3
Codec ID                                 : 2000
Duration                                 : 2 h 1 min
Bit rate mode                            : Constant
Bit rate                                 : 320 kb/s
Channel(s)                               : 6 channels
Channel positions                        : Front: L C R, Side: L R, LFE
Sampling rate                            : 48.0 kHz
Frame rate                               : 31.250 FPS (1536 SPF)
Bit depth                                : 16 bits
Compression mode                         : Lossy
Stream size                              : 279 MiB (15%)
Alignment                                : Split accross interleaves
Interleave, duration                     : 42  ms (1.00 video frame)
Interleave, preload duration             : 500  ms
Service kind                             : Complete Main










.: Note :.

Orario di seed e Banda disponibile: ai primi 10 completati, buon download

Info: Per scaricare devi usare un client come uTorrent o Transmission
AnnounceURL
udp://tracker.coppersurfer.tk:6969/announce
Hash 1495696443ad5c9f160c53188b5cebf753565720
Peers seeds: 719 , leech: 119
Size 1.87 GB
Completato 1011x
Aggiunto 04.05.19 - 15:05:24
Uploader   Sfrank77
Votazione (Voti: 1)


Condividi questo bittorrent:


html/blog:


bbcode/forum:




Aggiungi Commento