* Dettagli Torrent   globale  | Commenti (2) 


- Un.Uomo.Tranquillo.2019.iTALiAN.MD.WEBRip.R3.XviD-BYMul1n0 -


Download via torrent: Bloccato alla richiesta dai detentori di copyright.
Categoria bittorrent BDRip
Descrizione
Un Uomo Tranquillo (2019)



[color=green].: Scheda del Film :.


Titolo originale:  Cold Pursuit
Nazionalità:   USA
Anno:  2019
Genere:   thriller, azione, drammatico
Regia:   Hans Petter Moland

Cast:      

   Liam Neeson: Nelson “Nels” Coxman
   Laura Dern: Grace Coxman
   Emmy Rossum: Kimberly “Kim” Dash
   Tom Bateman: Trevor “Vichingo” Calcote
   David O'Hara: Sly
   Domenick Lombardozzi: Mustang
   Julia Jones: Aya
   William Forsythe: Brock "Wingman" Coxman
   Raoul Trujillo: Thorpe
   John Doman: John “Gip” Gipsky
   Michael Eklund: Speedo
   Benjamin Hollingsworth: Dexter
   Arnold Pinnock: Eskimo
   Ben Cotton: Windex





.: Trama :.


Nelson Coxman, detto "Nels", è l'autista del mezzo spazzaneve della cittadina sciistica di Kehoe nelle Montagne Rocciose: la sua attività unita al suo carattere affabile e tranquillo gli fanno vincere il premio di cittadino dell'anno. Contemporaneamente alla cerimonia di premiazione Kyle Coxman ed il suo collega "Dante" vengono rapiti dal locale aeroporto da "Speedo", uno spacciatore locale. Dante riesce a fuggire mentre Kyle rimane prigioniero dello spacciatore che lo uccide con una dose letale di eroina. Distrutto dalla morte del figlio e dal dolore dovuto alla convinzione di non averlo veramente conosciuto, Nels è in procinto di suicidarsi quando Dante gli rivela la verità: Dante aveva rubato un chilogrammo di cocaina e Speedo aveva deciso di uccidere entrambi non sapendo chi dei due fosse il colpevole. Furioso, Nels trova ed uccide Speedo e tramite le informazioni da lui ricavato, altri due uomini della rete di spaccio. La sparizione di tre dei suoi uomini convince il boss Trevor Calcote, detto “Vichingo” che qualcuno li abbia uccisi e si convince che i colpevoli siano i suoi soci nella zona: una rete di spacciatori composta da nativi americani capeggiati da "Toro bianco". Vichingo ordina dunque la cattura di uno dei fattorini di Toro bianco il quale dopo una lunga tortura viene ucciso dallo stesso vichingo. Il fattorino era però l'unico figlio di Toro bianco e ciò causa una guerra fra i due clan. Nel mentre Nels si reca da suo fratello Brock, un sicario in pensione che lavorava per il padre del vichingo sotto lo pseudonimo di "Appoggio", per chiedergli consigli su come continuare la propria vendetta. Brock gli consiglia dunque di rivolgersi ad un sicario detto "L'eschimese" per compiere il lavoro.

.: ScreenShot :.








.: Scheda tecnica del filmato :.


General
Complete name                            : C:Un.Uomo.Tranquillo.2019.iTALiAN.MD.WEBRip.R3.XviD-iSTANCE.avi
Format                                   : AVI
Format/Info                              : Audio Video Interleave
File size                                : 1.51 GiB
Duration                                 : 1 h 58 min
Overall bit rate                         : 1 822 kb/s
Writing library                          : VirtualDub build 35491/release

Video
ID                                       : 0
Format                                   : MPEG-4 Visual
Format profile                           : Advanced [email protected]
Format settings                          : BVOP2
Format settings, BVOP                    : 2
Format settings, QPel                    : No
Format settings, GMC                     : No warppoints
Format settings, Matrix                  : Default (MPEG)
Muxing mode                              : Packed bitstream
Codec ID                                 : XVID
Codec ID/Hint                            : XviD
Duration                                 : 1 h 58 min
Bit rate                                 : 1 621 kb/s
Width                                    : 720 pixels
Height                                   : 304 pixels
Display aspect ratio                     : 2.35:1
Frame rate                               : 23.976 (24000/1001) FPS
Color space                              : YUV
Chroma subsampling                       : 4:2:0
Bit depth                                : 8 bits
Scan type                                : Progressive
Compression mode                         : Lossy
Bits/(Pixel*Frame)                       : 0.309
Stream size                              : 1.34 GiB (89%)
Writing library                          : XviD 67

Audio
ID                                       : 1
Format                                   : MPEG Audio
Format version                           : Version 1
Format profile                           : Layer 3
Format settings                          : Joint stereo / MS Stereo
Codec ID                                 : 55
Codec ID/Hint                            : MP3
Duration                                 : 1 h 58 min
Bit rate mode                            : Constant
Bit rate                                 : 192 kb/s
Channel(s)                               : 2 channels
Sampling rate                            : 48.0 kHz
Frame rate                               : 41.667 FPS (1152 SPF)
Compression mode                         : Lossy
Stream size                              : 163 MiB (11%)
Alignment                                : Split accross interleaves
Interleave, duration                     : 42  ms (1.00 video frame)
Interleave, preload duration             : 500  ms
Writing library                          : LAME3.99r
Encoding settings                        : -m j -V 4 -q 3 -lowpass 18.6 -b 192








.: Note :.

Orario di seed e Banda disponibile: ai primi 10 completati, buon download

Info: Per scaricare devi usare un client come uTorrent o Transmission
AnnounceURL
udp://tracker.coppersurfer.tk:6969/announce
Hash 5f5ad92f9f7f32964694d626fb09094299eee2f5
Peers seeds: 490 , leech: 134
Size 1.51 GB
Completato 2591x
Aggiunto 27.04.19 - 07:04:28
Uploader   Sfrank77
Votazione (Voti: 0)


Condividi questo bittorrent:


html/blog:


bbcode/forum:




Aggiungi Commento
Ultimi commenti
avatar   Sfrank77Sfrank77   
la prossima volta ti porto al cinema.....  
01/05 21.59
  
sottotitoli in cirillico e audio scarso
27/04 15.40
Tutti commenti (2)