* Dettagli Torrent   globale  | Commenti (0) 


- LE IENE 16/04/2019 By Mul1n0 -


Download via torrent:
Categoria bittorrent SerieTv
Descrizione
LE IENE 16/04/2019 By Mul1n0[/SIZE][/b]



.: Scheda del filmato :.

Anno: 2019
Genere: INCHIESTA
Regia: DAVIDE PARENTI

.: Descrizione :.


Programma di approfondimento e di attuailtà che propone inchieste e reportage facendo uso di uno stile irriverente e satirico.

.: ScreenShot :.









.: Scheda tecnica :.[spoiler]

General
Complete name                            : C:LeIene 16-04-2019 By Mu1ln0.avi
Format                                   : AVI
Format/Info                              : Audio Video Interleave
Format profile                           : OpenDML
File size                                : 2.06 GiB
Duration                                 : 3 h 9 min
Overall bit rate                         : 1 554 kb/s
Writing application                      : Lavf54.61.104

Video
ID                                       : 0
Format                                   : MPEG-4 Visual
Format profile                           : Advanced [email protected]
Format settings                          : BVOP2
Format settings, BVOP                    : 2
Format settings, QPel                    : No
Format settings, GMC                     : No warppoints
Format settings, Matrix                  : Default (H.263)
Codec ID                                 : XVID
Codec ID/Hint                            : XviD
Duration                                 : 3 h 9 min
Bit rate                                 : 1 413 kb/s
Width                                    : 720 pixels
Height                                   : 406 pixels
Display aspect ratio                     : 16:9
Original display aspect ratio            : 16:9
Frame rate                               : 25.000 FPS
Color space                              : YUV
Chroma subsampling                       : 4:2:0
Bit depth                                : 8 bits
Scan type                                : Progressive
Compression mode                         : Lossy
Bits/(Pixel*Frame)                       : 0.193
Stream size                              : 1.87 GiB (91%)
Writing library                          : XviD 64

Audio
ID                                       : 1
Format                                   : MPEG Audio
Format version                           : Version 1
Format profile                           : Layer 3
Format settings                          : Joint stereo / MS Stereo
Codec ID                                 : 55
Codec ID/Hint                            : MP3
Duration                                 : 3 h 9 min
Bit rate mode                            : Constant
Bit rate                                 : 128 kb/s
Channel(s)                               : 2 channels
Sampling rate                            : 48.0 kHz
Compression mode                         : Lossy
Stream size                              : 174 MiB (8%)
Alignment                                : Aligned on interleaves
Interleave, duration                     : 24  ms (0.60 video frame)













[/spoiler]

.: Note :.

Orario di seed e Banda disponibile:
24 / 24 Ai primi 10 completati



Info: Per scaricare devi usare un client come uTorrent o Transmission
AnnounceURL
http://tracker.tntvillage.scambioetico.org:2710/announce
Hash f3e949a1c251e6f088dab2775d89d861d2fd64fa
Peers seeds: 20 , leech: 10
Size 2.06 GB
Completato 26x
Aggiunto 17.04.19 - 20:04:56
Uploader   Sfrank77
Votazione (Voti: 0)


Condividi questo bittorrent:


html/blog:


bbcode/forum:




Aggiungi Commento