* Dettagli Torrent   globale  | Commenti (0) 


- Io Sono Battista - 27/12/2018 [DttRip - Xvid - Ita Mp3] By Mul1n0 -


Download via torrent:
Categoria bittorrent SerieTv
Descrizione
[align=center][SIZE=17] Io sono Battista by Mul1n0[/SIZE]



.: Scheda del filmato :.

Anno:  2018
Genere:  Cabarè
Regia:   Mediaset

Cast:  Maurizio Battista

.: Descrizione :.
[/align]

«Non ho bisogno di scrivere pezzi comici… la mia vita reale è tutta un pezzo comico». Comincia così il racconto di Io sono Battista lo show al Teatro Colosseo di Torino dell’attore, comico e presentatore romano Maurizio Battista, che andrà in onda in prima serata su Italia 1, giovedì 27 dicembre.

Una serata all’insegna del divertimento in cui con il suo stile inconfondibile ed esilaranti aneddoti, Maurizio Battista guiderà lo spettatore in un percorso ironico attraverso la sua quotidianità, spesso affine a quella del proprio pubblico. La forza di Battista risiede infatti proprio nel racconto diretto e senza filtri della vita di tutti i giorni, nel quale lo spettatore può riconoscere vizi e virtù dell’italiano medio.

Monologhi e cavalli di battaglia saranno arricchiti dalla proiezione di fotografie personali e da divertenti articoli scelti dal web che, da sempre, Maurizio Battista ama raccogliere e commentare con la platea. Mentre il contrappunto musicale sarà affidato alla DJ Anfisa Letyago, siberiana di nascita e partenopea di adozione, che alla consolle accompagnerà lo spettacolo di Battista.

[align=center].: ScreenShot :.







.: Scheda tecnica :.[spoiler]

General
Complete name               : C:Io Sono Battista - 27122018.avi
Format                      : AVI
Format/Info                 : Audio Video Interleave
Format profile              : OpenDML
File size                   : 2.06 GiB
Duration                    : 2 h 10 min
Overall bit rate            : 2 253 kb/s
Writing application         : Lavf54.61.104

Video
ID                          : 0
Format                      : MPEG-4 Visual
Format profile              : Advanced [email protected]
Format settings             : BVOP2
Format settings, BVOP       : 2
Format settings, QPel       : No
Format settings, GMC        : No warppoints
Format settings, Matrix     : Default (H.263)
Codec ID                    : XVID
Codec ID/Hint               : XviD
Duration                    : 2 h 10 min
Bit rate                    : 2 112 kb/s
Width                       : 720 pixels
Height                      : 406 pixels
Display aspect ratio        : 16:9
Original display aspect rat : 16:9
Frame rate                  : 25.000 FPS
Color space                 : YUV
Chroma subsampling          : 4:2:0
Bit depth                   : 8 bits
Scan type                   : Progressive
Compression mode            : Lossy
Bits/(Pixel*Frame)          : 0.289
Stream size                 : 1.93 GiB (94%)
Writing library             : XviD 64

Audio
ID                          : 1
Format                      : MPEG Audio
Format version              : Version 1
Format profile              : Layer 3
Format settings             : Joint stereo / MS Stereo
Codec ID                    : 55
Codec ID/Hint               : MP3
Duration                    : 2 h 10 min
Bit rate mode               : Constant
Bit rate                    : 128 kb/s
Channel(s)                  : 2 channels
Sampling rate               : 48.0 kHz
Compression mode            : Lossy
Stream size                 : 120 MiB (6%)
Alignment                   : Aligned on interleaves
Interleave, duration        : 24  ms (0.60 video frame)


[/spoiler]

.: Note :.

Orario di seed e Banda disponibile:
24/24 Ai primi 10 completati, rest in seed

][/align]
Info: Per scaricare devi usare un client come uTorrent o Transmission
AnnounceURL
http://tracker.tntvillage.scambioetico.org:2710/announce
Hash 6e90ea09396d764bbb20229899ce458daa786828
Peers seeds: 11 , leech: 1
Size 2.06 GB
Completato 1394x
Aggiunto 28.12.18 - 14:12:32
Uploader   Sfrank77
Votazione (Voti: 0)


Condividi questo bittorrent:


html/blog:


bbcode/forum:




Aggiungi Commento