* Dettagli Torrent   globale  | Commenti (0) 


- Rino Tommasi. I Campioni Leggendari Della BOXE 1997 -


Download via torrent:
Categoria bittorrent SerieTv
Descrizione
[align=center][SIZE=17]Raccolta I CAMPIONI LEGGENDARI DELLA BOXE 1997 BY Mul1n0[/SIZE]



.: Scheda del Film :.

Titolo originale: Collana "I campioni leggendari della BOXE"
Nazionalità:  ITA
Anno:  1997
Genere:  Doc-Sport
Regia:  Deagostini

Cast:  Rino Tommasi

.: Trama :.


La carriera dei più grandi campioni di questo sport raccontata da Rino Tommasi che commenta i match più importanti. Per veri appassionati.

Elenco numeri:

I Campioni Leggendari Della BOXE Archie MOORE [VHSrip 720p XVID Ita Mp3] (by.Mul1n0)
I Campioni Leggendari Della BOXE Carlos MONZON [VHSrip 720p XVID Ita Mp3] (by.Mul1n0)
I Campioni Leggendari Della BOXE Floyd PATTERSON [VHSrip 720p XVID Ita Mp3] (by.Mul1n0)
I Campioni Leggendari Della BOXE Henry COOPER [VHSrip 720p XVID Ita Mp3] (by.Mul1n0)
I Campioni Leggendari Della BOXE Jake LA MOTTA [VHSrip 720p XVID Ita Mp3] (by.Mul1n0)
I Campioni Leggendari Della BOXE Joe FRAZIER [VHSrip 720p XVID Ita Mp3] (by.Mul1n0)
I Campioni Leggendari Della BOXE Larry HOLMES [VHSrip 720p XVID Ita Mp3] (by.Mul1n0)
I Campioni Leggendari Della BOXE Marvin HAGLER [VHSrip 720p XVID Ita Mp3] (by.Mul1n0)
I Campioni Leggendari Della BOXE Mike TYSON [VHSrip 720p XVID Ita Mp3] (by.Mul1n0)
I Campioni Leggendari Della BOXE Muhammad ALI [VHSrip 720p XVID Ita Mp3] (by.Mul1n0)
I Campioni Leggendari Della BOXE Muhammad ALI 2 [VHSrip 720p XVID Ita Mp3] (by.Mul1n0)
I Campioni Leggendari Della BOXE Ray Sugar LEONARD [VHSrip 720p XVID Ita Mp3] (by.Mul1n0)
I Campioni Leggendari Della BOXE Ray Sugar ROBINSON [VHSrip 720p XVID Ita Mp3] (by.Mul1n0)
I Campioni Leggendari Della BOXE Thomas HEARNS [VHSrip 720p XVID Ita Mp3] (by.Mul1n0)
La Gazzetta Dello Sport I MITI Della BOXE Un Secolo Di PUGNI [VHSrip 720p XVID Ita Mp3] (by.Mul1n0)
Il Grande Sport - CHAMPIONS [VHSrip 720p XVID Ita Mp3] (by.Mul1n0)

.: ScreenShot :.







.: Scheda tecnica del filmato :.
[spoiler]

General
Complete name               : C: Campioni Leggendari Della BOXE
Format                      : AVI
Format/Info                 : Audio Video Interleave
File size                   : 699 MiB
Duration                    : 42 min 20 s
Overall bit rate            : 2 308 kb/s
Writing application         : Lavf54.61.104

Video
ID                          : 0
Format                      : MPEG-4 Visual
Format profile              : Advanced [email protected]
Format settings             : BVOP2
Format settings, BVOP       : 2
Format settings, QPel       : No
Format settings, GMC        : No warppoints
Format settings, Matrix     : Default (H.263)
Codec ID                    : XVID
Codec ID/Hint               : XviD
Duration                    : 42 min 20 s
Bit rate                    : 2 168 kb/s
Width                       : 720 pixels
Height                      : 586 pixels
Display aspect ratio        : 4:3
Frame rate                  : 25.000 FPS
Color space                 : YUV
Chroma subsampling          : 4:2:0
Bit depth                   : 8 bits
Scan type                   : Progressive
Compression mode            : Lossy
Bits/(Pixel*Frame)          : 0.205
Stream size                 : 656 MiB (94%)
Writing library             : XviD 64

Audio
ID                          : 1
Format                      : MPEG Audio
Format version              : Version 1
Format profile              : Layer 3
Format settings             : Joint stereo / MS Stereo
Codec ID                    : 55
Codec ID/Hint               : MP3
Duration                    : 42 min 20 s
Bit rate mode               : Constant
Bit rate                    : 128 kb/s
Channel(s)                  : 2 channels
Sampling rate               : 48.0 kHz
Compression mode            : Lossy
Stream size                 : 38.8 MiB (6%)
Alignment                   : Aligned on interleaves
Interleave, duration        : 24  ms (0.60 video frame)



[/spoiler]
.: Note :.

Orario di seed e Banda disponibile: 24/24  Ai primi 10 completati, buon download rest-in-seed

SCUSATE MA E' DOVEROSO, MI SONO FATTO UN CULO COSì, RINGRAZIATE E COMMENTATE  CIAO[/align]
Info: Per scaricare devi usare un client come uTorrent o Transmission
AnnounceURL
http://tracker.tntvillage.scambioetico.org:2710/announce
Hash 09ac62a202712807e558095abfcf4f22001ac3e2
Peers seeds: 6 , leech: 1
Size 10.98 GB
Completato 355x
Aggiunto 03.12.18 - 14:12:26
Uploader   Sfrank77
Votazione (Voti: 0)


Condividi questo bittorrent:


html/blog:


bbcode/forum:




Aggiungi Commento