* Dettagli Torrent   globale  | Commenti (0) 


- Le IENE 04-11-2018 DttRIP Xvid Ita Mp3.AVI -


Download via torrent:
Categoria bittorrent SerieTv
Descrizione
[align=center][SIZE=17] LE IENE 04/11/2018 By Mul1n0[/SIZE]



.: Scheda del filmato :.

Anno: 2018
Genere: INCHIESTA
Regia: DAVIDE PARENTI

.: Descrizione :.
[/align]

Programma di approfondimento e di attuailtà che propone inchieste e reportage facendo uso di uno stile irriverente e satirico.

[align=center].: ScreenShot :.





.: Scheda tecnica :.[spoiler]

General
Complete name                            : C:
Format                                   : AVI
Format/Info                              : Audio Video Interleave
Format profile                           : OpenDML
File size                                : 2.94 GiB
Duration                                 : 3 h 18 min
Overall bit rate                         : 2 122 kb/s
Writing application                      : Lavf54.61.104

Video
ID                                       : 0
Format                                   : MPEG-4 Visual
Format profile                           : Advanced [email protected]
Format settings                          : BVOP2
Format settings, BVOP                    : 2
Format settings, QPel                    : No
Format settings, GMC                     : No warppoints
Format settings, Matrix                  : Default (H.263)
Codec ID                                 : XVID
Codec ID/Hint                            : XviD
Duration                                 : 3 h 18 min
Bit rate                                 : 1 983 kb/s
Width                                    : 720 pixels
Height                                   : 406 pixels
Display aspect ratio                     : 16:9
Original display aspect ratio            : 16:9
Frame rate                               : 25.000 FPS
Color space                              : YUV
Chroma subsampling                       : 4:2:0
Bit depth                                : 8 bits
Scan type                                : Progressive
Compression mode                         : Lossy
Bits/(Pixel*Frame)                       : 0.271
Stream size                              : 2.75 GiB (93%)
Writing library                          : XviD 64

Audio
ID                                       : 1
Format                                   : MPEG Audio
Format version                           : Version 1
Format profile                           : Layer 3
Format settings                          : Joint stereo / MS Stereo
Codec ID                                 : 55
Codec ID/Hint                            : MP3
Duration                                 : 3 h 18 min
Bit rate mode                            : Constant
Bit rate                                 : 128 kb/s
Channel(s)                               : 2 channels
Sampling rate                            : 48.0 kHz
Compression mode                         : Lossy
Stream size                              : 181 MiB (6%)
Alignment                                : Aligned on interleaves
Interleave, duration                     : 24  ms (0.60 video frame)


[/spoiler]

.: Note :.

Orario di seed e Banda disponibile:
24 / 24 Ai primi 10 completati



[/align]
Info: Per scaricare devi usare un client come uTorrent o Transmission
AnnounceURL
http://tracker.tntvillage.scambioetico.org:2710/announce
Hash 600554d8476ee7771b23b5326ca186ae6366d7dd
Peers seeds: 0 , leech: 1
Size 2.94 GB
Completato 259x
Aggiunto 05.11.18 - 20:11:51
Uploader   Sfrank77
Votazione (Voti: 0)


Condividi questo bittorrent:


html/blog:


bbcode/forum:




Aggiungi Commento