* Dettagli Torrent   globale  | Commenti (0) 


- Mondiale Per La Pace WBC 23/02/2018 -


Download via torrent:
Categoria bittorrent DVD
Descrizione
[align=center][SIZE=17]Mondiale Per La Pace WBC[/SIZE]



.: Scheda dell'evento :.

Sport:  BOXE
Titolo evento:  Mondiale Per La Pace
Data dell'evento:  23 Febbraio 2018

.: Report :.
[/align]

Emanuele Marsili ha vinto il Mondiale della Pace WBC, prestigioso torneo internazionale giunto alla terza edizione. Al PalaTiziano di Roma, nel corso di una serata caratterizzata anche da tanta attività benefica e il cui incasso sarà devoluto ai terremotati di Italia e Messico, il 41enne ha sconfitto il messicano Victor Betancourt con verdetto unanime: il laziale si è imposto ai punti (68-64, 69-64, 70-62) dopo che l’incontro era stato interrotto alla settima ripresa a causa di una ferita sopra l’occhio sinistro occorsa al pugile italiano che comunque si è distinto per la velocità dei colpi, molto precisi e diretti soprattutto al corpo del rivale. Ora Marsili, capace di dominare l’incontro incurante dell’età che avanza, punta ad avere una chance mondiale dopo l’esperienza Ibo.

Il programma prevedeva anche l’Europeo dei medi ma il nostro Alessandro Goddi ha ceduto per ko nel corso della seconda ripresa: il sardo è stato contato per due volte e a quel punto il suo angolo ha deciso di gettare la spugna consegnando la vittoria al polacco Kamil Szeremeta, trionfatore in appena 4 minuti e 19 secondi.

[align=center].: ScreenShot :.
[spoiler]





[/spoiler]
.: Scheda tecnica del DivX :.[spoiler]

General
Complete name                            : C:\Mondiale Per La Pace WBC.avi
Format                                   : AVI
Format/Info                              : Audio Video Interleave
File size                                : 1.36 GiB
Duration                                 : 1 h 58 min
Overall bit rate                         : 1 647 kb/s

Video
ID                                       : 0
Format                                   : MPEG-4 Visual
Format profile                           : Advanced [email protected]
Format settings, BVOP                    : 2
Format settings, QPel                    : No
Format settings, GMC                     : No warppoints
Format settings, Matrix                  : Default (H.263)
Codec ID                                 : XVID
Codec ID/Hint                            : XviD
Duration                                 : 1 h 58 min
Bit rate                                 : 1 513 kb/s
Width                                    : 720 pixels
Height                                   : 408 pixels
Display aspect ratio                     : 16:9
Frame rate                               : 25.000 FPS
Color space                              : YUV
Chroma subsampling                       : 4:2:0
Bit depth                                : 8 bits
Scan type                                : Progressive
Compression mode                         : Lossy
Bits/(Pixel*Frame)                       : 0.206
Stream size                              : 1.25 GiB (92%)
Writing library                          : XviD 67

Audio
ID                                       : 1
Format                                   : MPEG Audio
Format version                           : Version 1
Format profile                           : Layer 3
Mode                                     : Joint stereo
Mode extension                           : MS Stereo
Codec ID                                 : 55
Codec ID/Hint                            : MP3
Duration                                 : 1 h 58 min
Bit rate mode                            : Constant
Bit rate                                 : 128 kb/s
Channel(s)                               : 2 channels
Sampling rate                            : 48.0 kHz
Compression mode                         : Lossy
Stream size                              : 108 MiB (8%)
Alignment                                : Aligned on interleaves
Interleave, duration                     : 160  ms (4.00 video frames)
Interleave, preload duration             : 216  ms
Title                                    : tutto - [1][0] Italian_audio
Writing library                          : LAME3.100ª



[/spoiler]

.: Note :.

[IMG]https://albertomassazza.files.wordpress.com/2013/05/4-mori.jpeg[/IMG]



Orario di seed e Banda disponibile:
24/24 Ai primi 10 completati

[/align]
Info: Per scaricare devi usare un client come uTorrent o Transmission
AnnounceURL
http://tracker.tntvillage.scambioetico.org:2710/announce
Hash 86efb8ea0b64d1566ffee202f1e4d48adda758e3
Peers seeds: 1 , leech: 0
Size 1.36 GB
Completato 0x
Aggiunto 25.02.18 - 13:02:12
Uploader   Sfrank77
Votazione (Voti: 0)


Condividi questo bittorrent:


html/blog:


bbcode/forum:




Aggiungi Commento