* Dettagli Torrent   globale  | Commenti (0) 


- Ant-Man (2015) [BDrip 1080p - H265 - Ita Eng Ac3 5.1 - Sub Ita Eng] Hevc 10bit Azione / Webseed -


Download via torrent:
Categoria bittorrent BDRip
Descrizione

[[align=center]






Nuovo capitolo dell'Universo Cinematografico Marvel, Ant-Man porta per la prima volta sul grande schermo uno dei membri fondatori degli Avengers. Il personaggio di Hank Pym/Ant-Man esordì nei fumetti Marvel nel 1962, con Tales to Astonish #27, e apparve poi al fianco degli Avengers in Avengers #1, nel 1963. Pym diventa Ant-Man dopo aver scoperto un composto chimico - la Particella Pym - che gli permette di alterare le dimensioni del suo corpo e possedere una forza sovrumana. Grazie allo sviluppo di un’altra tecnologia, Ant-Man possiede inoltre l'abilità di controllare eserciti di formiche. Questa nuova avventura, ambientata nell'Universo Cinematografico Marvel, vede l'abile ladro Scott Lang nei panni di un Ant-Man moderno. Dopo che il dr. Hank Pym gli fornisce la strabiliante capacità di rimpicciolirsi e al contempo accrescere la propria forza, Lang dovrà ricorrere alle sue doti eroiche nascoste per aiutare Pym a proteggere lo spettacolare costume di Ant-Man da nuove, terribili minacce. Esposti a ostacoli apparentemente insormontabili, Pym e Lang dovranno pianificare e portare a termine un colpo che salverà il mondo.




DATA USCITA: 12 agosto 2015
GENERE: Azione , Fantasy
ANNO: 2015
REGIA: Peyton Reed
ATTORI: Paul Rudd, Michael Douglas, Evangeline Lilly, Corey Stoll, Bobby Cannavale, Michael Peña, Judy Greer, David Dastmalchian
SCENEGGIATURA: Edgar Wright, Joe Cornish
FOTOGRAFIA: Bill Pope
MONTAGGIO: Dan Lebental, Colby Parker Jr.
MUSICHE: Steven Price
PRODUZIONE: Big Talk Productions, Marvel Studios
DISTRIBUZIONE: Walt Disney Pictures
PAESE: USA
DURATA: 117 Min


[/align]

[CITA=Sciencefun][youtube=nbcbZlAbg9w][/CITA]

[align=center]



[spoiler]
General
Unique ID                                : 208476513855640483581961318978374206011 (0x9CD71DB6FFEC74E2B37CB01203AA023B)
Complete name                            : S:\TNT\Ant-Man 12 Agosto\x265\Ant-Man 1080p x265 10bit Ita Eng 5.1 [Sciencefun]  Resync.mkv
Format                                   : Matroska
Format version                           : Version 4 / Version 2
File size                                : 2.12 GiB
Duration                                 : 1h 57mn
Overall bit rate                         : 2 589 Kbps
Movie name                               : Ant-Man 1080p x265 10bit Ita Eng 5.1 [Sciencefun]
Encoded date                             : UTC 2016-07-24 09:42:04
Writing application                      : mkvmerge v9.1.0 ('Little Earthquakes') 32bit
Writing library                          : libebml v1.3.3 + libmatroska v1.4.4

Video
ID                                       : 5
Format                                   : HEVC
Format/Info                              : High Efficiency Video Coding
Format profile                           : Main [email protected]@Main
Codec ID                                 : V_MPEGH/ISO/HEVC
Duration                                 : 1h 57mn
Bit rate                                 : 1 501 Kbps
Width                                    : 1 920 pixels
Height                                   : 1 080 pixels
Display aspect ratio                     : 16:9
Frame rate mode                          : Constant
Frame rate                               : 23.976 (24000/1001) fps
Color space                              : YUV
Chroma subsampling                       : 4:2:0
Bit depth                                : 10 bits
Bits/(Pixel*Frame)                       : 0.030
Stream size                              : 1.23 GiB (58%)
Title                                    : Ant-Man 1080p x265 10bit Ita Eng 5.1 [Sciencefun]
Writing library                          : x265 1.8+38-fe65544b6c40:[Windows][GCC 4.8.2][64 bit] 10bit
Encoding settings                        : wpp / ctu=64 / min-cu-size=8 / max-tu-size=32 / tu-intra-depth=1 / tu-inter-depth=1 / me=1 / subme=2 / merange=57 / no-rect / no-amp / max-merge=2 / temporal-mvp / no-early-skip / rdpenalty=0 / no-tskip / no-tskip-fast / strong-intra-smoothing / no-lossless / no-cu-lossless / no-constrained-intra / no-fast-intra / open-gop / no-temporal-layers / interlace=0 / keyint=250 / min-keyint=23 / scenecut=40 / rc-lookahead=20 / lookahead-slices=0 / bframes=4 / bframe-bias=0 / b-adapt=2 / ref=3 / limit-refs=0 / weightp / no-weightb / aq-mode=1 / qg-size=32 / aq-strength=1.00 / cbqpoffs=0 / crqpoffs=0 / rd=3 / psy-rd=0.30 / rdoq-level=0 / psy-rdoq=0.00 / signhide / deblock / sao / no-sao-non-deblock / b-pyramid / cutree / rc=2 / pass / bitrate=1500 / qcomp=0.60 / qpmin=0 / qpmax=51 / qpstep=4 / cplxblur=20.0 / qblur=0.5 / ipratio=1.40 / pbratio=1.30
Default                                  : Yes
Forced                                   : No

Audio #1
ID                                       : 1
Format                                   : AC-3
Format/Info                              : Audio Coding 3
Mode extension                           : CM (complete main)
Format settings, Endianness              : Big
Codec ID                                 : A_AC3
Duration                                 : 1h 57mn
Bit rate mode                            : Constant
Bit rate                                 : 448 Kbps
Channel(s)                               : 6 channels
Channel positions                        : Front: L C R, Side: L R, LFE
Sampling rate                            : 48.0 KHz
Frame rate                               : 31.250 fps (1536 spf)
Compression mode                         : Lossy
Delay relative to video                  : 28ms
Stream size                              : 375 MiB (17%)
Title                                    : AC3 5.1 @448kbps
Language                                 : English
Default                                  : No
Forced                                   : No

Audio #2
ID                                       : 6
Format                                   : AC-3
Format/Info                              : Audio Coding 3
Mode extension                           : CM (complete main)
Format settings, Endianness              : Big
Codec ID                                 : A_AC3
Duration                                 : 1h 57mn
Bit rate mode                            : Constant
Bit rate                                 : 640 Kbps
Channel(s)                               : 6 channels
Channel positions                        : Front: L C R, Side: L R, LFE
Sampling rate                            : 44.1 KHz
Frame rate                               : 28.711 fps (1536 spf)
Compression mode                         : Lossy
Stream size                              : 536 MiB (25%)
Title                                    : AC3 5.1 Sciencefun Resync @640kbps
Language                                 : Italian
Default                                  : Yes
Forced                                   : No

Text #1
ID                                       : 2
Format                                   : UTF-8
Codec ID                                 : S_TEXT/UTF8
Codec ID/Info                            : UTF-8 Plain Text
Duration                                 : 1h 54mn
Bit rate                                 : 0 bps
Count of elements                        : 2
Stream size                              : 22.0 Bytes (0%)
Title                                    : Forced
Language                                 : Italian
Default                                  : Yes
Forced                                   : Yes

Text #2
ID                                       : 3
Format                                   : UTF-8
Codec ID                                 : S_TEXT/UTF8
Codec ID/Info                            : UTF-8 Plain Text
Duration                                 : 1h 56mn
Bit rate                                 : 57 bps
Count of elements                        : 1542
Stream size                              : 49.2 KiB (0%)
Title                                    : Normal
Language                                 : Italian
Default                                  : No
Forced                                   : No

Text #3
ID                                       : 4
Format                                   : UTF-8
Codec ID                                 : S_TEXT/UTF8
Codec ID/Info                            : UTF-8 Plain Text
Duration                                 : 1h 56mn
Bit rate                                 : 62 bps
Count of elements                        : 1716
Stream size                              : 53.5 KiB (0%)
Title                                    : Normal
Language                                 : English
Default                                  : No
Forced                                   : No

Menu
00:00:00.000                             : en:The Pym Particle
00:02:08.837                             : en:Scott Released from Prison
00:08:40.186                             : en:Tales to Astonish
00:15:24.840                             : en:Be the Person She Already Thinks You Are
00:19:59.740                             : en:The vault
00:27:50.210                             : en:Trial by Water
00:33:07.235                             : en:A Second Chance
00:38:53.956                             : en:Sugar?
00:44:36.465                             : en:Become the Hero
00:49:22.459                             : en:Meeting the Team
00:57:44.252                             : en:Revisiting the Past
01:00:48.811                             : en:Hi. I'm Scott
01:06:31.529                             : en:In the System
01:23:21.287                             : enisintegration
01:34:20.529                             : en:End of the Line
01:47:34.239                             : en:Epilogue


[/spoiler]



Clicca sull'immagine per vederla a dimensioni reali






Seed
Webseed Illimitato :giggle:
velocità media 16Mbit/s [fino a 64Mbit/s]

Nessun Seed diretto dai miei terminali

[IMG]http://s32.postimg.org/iqnkbi58h/cry.gif" alt="" onload="NcodeImageResizer.createOn(this);">
Mi Raccomando rimanete in Seed!!!



un  :rr: è sempre ben accetto
[/align]
Info: Per scaricare devi usare un client come uTorrent o Transmission
AnnounceURL
http://tracker.tntvillage.scambioetico.org:2710/announce
Hash d9d1b2517331caa1b669f7fcabbdd146bb339a42
Peers seeds: 84 , leech: 18
Size 2.12 GB
Completato 1250x
Aggiunto 11.08.16 - 20:08:47
Uploader   Sciencefun
Votazione (Voti: 1)


Condividi questo bittorrent:


html/blog:


bbcode/forum:




Aggiungi Commento