* Dettagli Torrent   globale  | Commenti (1) 


- Apocalypse Now Redux (1979) Remastering (2001) 197 m.DVDrip.XviD - Italian English.Ac3.5.1.MultiSub. -


Download via torrent: Bloccato alla richiesta dai detentori di copyright.
Categoria bittorrent BDRip
Descrizione
Apocalypse Now Redux (1979) Remastering (2001) 197 m.DVDrip.XviD - Italian English.Ac3.5.1.MultiSub.MIRCrew

[center]



NO FOUND ONLY ORIGINAL RELEASE

Apocalypse Now Redux (1979) Remastering (2001) 197 m




 



Titolo originale Apocalypse Now Redux
Paese di produzione Stati Uniti
Anno 2001
Durata 197 min
Genere guerra, avventura, azione, drammatico
Regia Francis Ford Coppola
Soggetto Joseph Conrad (romanzo)
Sceneggiatura Francis Ford Coppola, Michael Herr, John Milius
Produttore Kim Aubry
Fotografia Vittorio Storaro
Montaggio Lisa Fruchtman, Gerald B. Greenberg, Richard Marks, Walter Murch, Lisa Fruchtman
Musiche Carmine Coppola, Francis Ford Coppola, Mickey Hart, The Doors, Richard Wagner
Scenografia Dean Tavoularis, Angelo P. Graham, George Nelson
Costumi Charles E. James





   Marlon Brando: Walter E. Kurtz
   Martin Sheen: Benjamin L. Willard
   Robert Duvall: William "Bill" Kilgore
   Frederic Forrest: Jay "Chef" Hicks
   Albert Hall: George Phillips
   Dennis Hopper: il fotoreporter
   Sam Bottoms: Lance B. Johnson
   Laurence Fishburne: Tyrone "Mr. Clean" Miller
   Harrison Ford: Colonnello Lucas
   Francis Ford Coppola: regista televisivo
   Vittorio Storaro: operatore TV
   Dean Tavoularis: fonico TV
   Mark Coppola: annunciatore
   Scott Glenn: Cap. Richard M. Colby
   Bo Byers: serg. MP
   Larry Carney: serg. MP
   G.D. Spradlin: generale Corman
   Chynthia Wood: Playmate dell'anno
   Colleen Camp: Playmate "Miss Maggio"
   Linda Carpenter: Playmate "Miss Agosto"

 


1969: la guerra del Vietnam ? al suo culmine. Il capitano Benjamin L. Willard ? appena tornato a Saigon. Egli ? un ufficiale dell'esercito americano, dove nominalmente appartiene ai paracadutisti della 173? Brigata Aviotrasportata. Willard ? profondamente turbato dalle missioni segrete che ha svolto, ha appena divorziato dalla moglie e apparentemente non ? pi? adeguato alla vita civile.....
Si tratta della versione restaurata e allungata (47 minuti) del famoso Apocalypse Now (1979); da sottolineare inoltre la presenza di un nuovo montaggio con materiale scartato all'epoca che aggiunge nuove sfumature all'opera, storicizza il contesto e, soprattutto, cambia leggermente il finale dell'originale del 1979. La versione italiana, infine, presenta un doppiaggio totalmente inedito.



It is the height of the war in Vietnam, and U.S. Army Captain Willard is sent by Colonel Lucas and a General to carry out a mission that, officially, 'does not exist - nor will it ever exist'. The mission: To seek out a mysterious Green Beret Colonel, Walter Kurtz, whose army has crossed the border into Cambodia and is conducting hit-and-run missions against the Viet Cong and NVA.........
A longer director's cut, titled "Apocalypse Now Redux", debuted on 11 May 2001 at the Cannes film festival. This cut was re-edited by Coppola and Walter Murch and features a new Technicolor dye prints with additional footage originally left out of thetheatrical release. The new version is 197 minutes long (53 minutes longer than the original version). The restored footage also includes the French plantation scenes with Aurore Clement and Christian Marquand, as well as scenes from the crew meeting the Playmates later on.
There are additional scenes when the crew is with Kilgore. During the napalm strike, he helps a wounded Vietnamese child. The napalm strike has ruined the favorable surfing conditions, so Lance and the others leave, much to Kilgore's dismay. Before they leave, Willard steals Kilgore's surfboard. Finally, just before Willard and Chef leave the boat to search for mangoes, a helicopter files by with Kilgore on loudspeaker, asking for his surfboard back.














[spoiler]
General
Complete name                            : Apocalypse Now (1979).ita.eng.sub.ita.MIRCrew\Apocalypse Now (1979).ita.eng.sub.ita.MIRCrew.avi
Format                                   : AVI
Format/Info                              : Audio Video Interleave
Format profile                           : OpenDML
File size                                : 2.44 GiB
Duration                                 : 3h 13mn
Overall bit rate                         : 1 802 Kbps
Writing application                      : VirtualDubMod 1.5.4.1 (build 2178/release)
Writing library                          : VirtualDubMod build 2178/release

Video
ID                                       : 0
Format                                   : MPEG-4 Visual
Format profile                           : Advanced [email protected]
Format settings, BVOP                    : 1
Format settings, QPel                    : No
Format settings, GMC                     : No warppoints
Format settings, Matrix                  : Custom
Codec ID                                 : XVID
Codec ID/Hint                            : XviD
Duration                                 : 3h 13mn
Bit rate                                 : 896 Kbps
Width                                    : 608 pixels
Height                                   : 304 pixels
Display aspect ratio                     : 2.000
Frame rate                               : 25.000 fps
Color space                              : YUV
Chroma subsampling                       : 4:2:0
Bit depth                                : 8 bits
Scan type                                : Progressive
Compression mode                         : Lossy
Bits/(Pixel*Frame)                       : 0.194
Stream size                              : 1.21 GiB (50%)
Writing library                          : XviD 1.2.0.dev47 (UTC 2006-11-01)

Audio #1
ID                                       : 1
Format                                   : AC-3
Format/Info                              : Audio Coding 3
Mode extension                           : CM (complete main)
Codec ID                                 : 2000
Duration                                 : 3h 13mn
Bit rate mode                            : Constant
Bit rate                                 : 448 Kbps
Channel(s)                               : 6 channels
Channel positions                        : Front: L C R, Side: L R, LFE
Sampling rate                            : 48.0 KHz
Bit depth                                : 16 bits
Compression mode                         : Lossy
Stream size                              : 622 MiB (25%)
Alignment                                : Split accross interleaves
Interleave, duration                     : 96 ms (2.40 video frames)
Interleave, preload duration             : 96 ms
Language                                 : Italian

Audio #2
ID                                       : 2
Format                                   : AC-3
Format/Info                              : Audio Coding 3
Mode extension                           : CM (complete main)
Codec ID                                 : 2000
Duration                                 : 3h 13mn
Bit rate mode                            : Constant
Bit rate                                 : 448 Kbps
Channel(s)                               : 6 channels
Channel positions                        : Front: L C R, Side: L R, LFE
Sampling rate                            : 48.0 KHz
Bit depth                                : 16 bits
Compression mode                         : Lossy
Stream size                              : 622 MiB (25%)
Alignment                                : Split accross interleaves
Interleave, duration                     : 96 ms (2.40 video frames)
Interleave, preload duration             : 96 ms
Language                                 : English


[/spoiler]

[/center]

Info: Per scaricare devi usare un client come uTorrent o Transmission
AnnounceURL
udp://open.demonii.com:1337/announce
Hash 5319433eff40462c19cd072174764168e20e03ba
Peers seeds: 42 , leech: 11
Size 2.46 GB
Completato 116x
Aggiunto 30.07.15 - 16:07:09
Uploader   robbyrs
Votazione (Voti: 1)


Condividi questo bittorrent:


html/blog:


bbcode/forum:




Aggiungi Commento
Ultimi commenti
  
video 8 e audio 10 scaricatelo
15/06 21.51
Tutti commenti (1)