ilCorSaRoNeRo.link - iTALiAN Torrent Search Engine RSS FEED il|CorSaRo|NeRo https://ilcorsaronero.link Sat, 19 Sep 2020 07:06:51 +0300 (c) 2020 ilCorSaRoNeRo.link - iTALiAN Torrent Search Engine Beetlejuice - Spiritello porcello (1988) UHDRip 2160p HEVC HDR ITA AC3 ENG TrueHD Atmos 7.1 PirateMK [BDRiP] [Seed (2)/Leech (4)]



[size=36pt]Beetlejuice - Spiritello porcello[/size]




Titolo: Beetlejuice
Nazione: USA
Anno: 1988
Genere: Comedy, Fantasy
Durata: 92 min
Regia: Tim Burton
Voti: IMDb (7.5/10), Rotten Tomatoes (84%), Metacritic (70/100)
Cast: Alec Baldwin, Geena Davis, Annie McEnroe, Maurice Page



Una coppia di giovani sposi muore in un incidente stradale. Tornano come fantasmi nella loro vecchia casa che però è abitata da una famiglia di cialtroni di città. Dopo aver cercato di spaventarli, i due chiamano in aiuto uno spiritello simpatico, sboccato e pasticcione, a nome Beetlejuice, che, dopo alcune difficoltà iniziali, riuscirà nell'impresa.


[spoiler][/spoiler]


[spoiler]
General
Unique ID : 10419991408707663730742434358129700416 (0x7D6D13DAE5C174E0EE53AFD7FE5AE40)
Complete name : DownloadsOldBeetlejuice 1988 UHDBeetlejuice - Spiritello porcello (198 UHDRip 2160p HEVC HDR ITA AC3 ENG TrueHD Atmos 7.1 PirateMKV.mkv
Format : Matroska
Format version : Version 4
File size : 13.6 GiB
Duration : 1 h 32 min
Overall bit rate mode : Variable
Overall bit rate : 21.1 Mb/s
Movie name : Beetlejuice - Spiritello porcello (198 - PirateMKV
Encoded date : UTC 2020-09-07 10:36:13
Writing application : mkvmerge v50.0.0 ('Awakenings&#39 64-bit
Writing library : libebml v1.4.0 + libmatroska v1.6.2 / Lavf58.45.100
Copyright : Encoded by PirateMKV

Video
ID : 1
ID in the original source medium : 4113 (0x1011)
Format : HEVC
Format/Info : High Efficiency Video Coding
Format profile : Main 10@L5.1@High
HDR format : SMPTE ST 2086, HDR10 compatible
Codec ID : V_MPEGH/ISO/HEVC
Duration : 1 h 32 min
Bit rate : 17.8 Mb/s
Width : 3 840 pixels
Height : 2 076 pixels
Display aspect ratio : 1.85:1
Frame rate mode : Constant
Frame rate : 23.976 (24000/1001) FPS
Color space : YUV
Chroma subsampling : 4:2:0 (Type 2)
Bit depth : 10 bits
Bits/(Pixel*Frame) : 0.093
Stream size : 11.4 GiB (84%)
Writing library : x265 3.4+2-73ca1d7be377:[Windows][GCC 10.2.1][64 bit] 10bit
Encoding settings : cpuid=1111039 / frame-threads=3 / numa-pools=12 / wpp / no-pmode / no-pme / no-psnr / no-ssim / log-level=2 / input-csp=1 / input-res=3840x2076 / interlace=0 / total-frames=0 / level-idc=51 / high-tier=1 / uhd-bd=0 / ref=5 / no-allow-non-conformance / repeat-headers / annexb / aud / hrd / info / hash=0 / no-temporal-layers / no-open-gop / min-keyint=1 / keyint=24 / gop-lookahead=0 / bframes=8 / b-adapt=2 / b-pyramid / bframe-bias=0 / rc-lookahead=40 / lookahead-slices=0 / scenecut=40 / hist-scenecut=0 / radl=0 / no-splice / no-intra-refresh / ctu=64 / min-cu-size=8 / no-rect / no-amp / max-tu-size=32 / tu-inter-depth=4 / tu-intra-depth=4 / limit-tu=0 / rdoq-level=0 / dynamic-rd=0.00 / no-ssim-rd / signhide / no-tskip / nr-intra=0 / nr-inter=0 / no-constrained-intra / no-strong-intra-smoothing / max-merge=3 / limit-refs=3 / limit-modes / me=2 / subme=5 / merange=57 / temporal-mvp / no-frame-dup / no-hme / weightp / weightb / no-analyze-src-pics / deblock=-3:-3 / no-sao / no-sao-non-deblock / rd=4 / selective-sao=0 / no-early-skip / rskip / fast-intra / no-tskip-fast / no-cu-lossless / b-intra / no-splitrd-skip / rdpenalty=0 / psy-rd=2.00 / psy-rdoq=0.00 / no-rd-refine / no-lossless / cbqpoffs=-3 / crqpoffs=-3 / rc=crf / crf=21.0 / qcomp=0.70 / qpstep=4 / stats-write=0 / stats-read=0 / vbv-maxrate=160000 / vbv-bufsize=160000 / vbv-init=0.9 / crf-max=0.0 / crf-min=0.0 / ipratio=1.40 / pbratio=1.30 / aq-mode=3 / aq-strength=0.70 / no-cutree / zone-count=0 / no-strict-cbr / qg-size=32 / no-rc-grain / qpmax=69 / qpmin=0 / no-const-vbv / sar=1 / overscan=0 / videoformat=5 / range=0 / colorprim=9 / transfer=16 / colormatrix=9 / chromaloc=1 / chromaloc-top=2 / chromaloc-bottom=2 / display-window=0 / master-display=G(13250,34500)B(7500,3000)R(34000,16000)WP(15635,16450)L(40000000,50) / cll=3941,129 / min-luma=0 / max-luma=1023 / log2-max-poc-lsb=8 / vui-timing-info / vui-hrd-info / slices=1 / no-opt-qp-pps / no-opt-ref-list-length-pps / no-multi-pass-opt-rps / scenecut-bias=0.05 / hist-threshold=0.01 / no-opt-cu-delta-qp / no-aq-motion / hdr10 / hdr10-opt / no-dhdr10-opt / no-idr-recovery-sei / analysis-reuse-level=0 / analysis-save-reuse-level=0 / analysis-load-reuse-level=0 / scale-factor=0 / refine-intra=0 / refine-inter=0 / refine-mv=1 / refine-ctu-distortion=0 / no-limit-sao / ctu-info=0 / no-lowpass-dct / refine-analysis-type=0 / copy-pic=1 / max-ausize-factor=1.0 / no-dynamic-refine / no-single-sei / no-hevc-aq / no-svt / no-field / qp-adaptation-range=1.00 / no-scenecut-aware-qpconformance-window-offsets / right=0 / bottom=0 / decoder-max-rate=0
Language : English
Default : Yes
Forced : No
Color range : Limited
Color primaries : BT.2020
Transfer characteristics : PQ
Matrix coefficients : BT.2020 non-constant
Mastering display color primaries : Display P3
Mastering display luminance : min: 0.0050 cd/m2, max: 4000 cd/m2
Maximum Content Light Level : 3941 cd/m2
Maximum Frame-Average Light Level : 129 cd/m2
Original source medium : Blu-ray

Audio #1
ID : 2
Format : AC-3
Format/Info : Audio Coding 3
Commercial name : Dolby Digital
Codec ID : A_AC3
Duration : 1 h 32 min
Bit rate mode : Constant
Bit rate : 192 kb/s
Channel(s) : 2 channels
Channel layout : L R
Sampling rate : 48.0 kHz
Frame rate : 31.250 FPS (1536 SPF)
Compression mode : Lossy
Stream size : 126 MiB (1%)
Title : AC3 2.0
Language : Italian
Service kind : Complete Main
Default : Yes
Forced : No

Audio #2
ID : 3
Format : MLP FBA 16-ch
Format/Info : Meridian Lossless Packing FBA with 16-channel presentation
Commercial name : Dolby TrueHD with Dolby Atmos
Codec ID : A_TRUEHD
Duration : 1 h 32 min
Bit rate mode : Variable
Bit rate : 3 117 kb/s
Maximum bit rate : 5 781 kb/s
Channel(s) : 8 channels
Channel layout : L R C LFE Ls Rs Lb Rb
Sampling rate : 48.0 kHz
Frame rate : 1 200.000 FPS (40 SPF)
Compression mode : Lossless
Stream size : 2.01 GiB (15%)
Title : TrueHD Atmos 7.1
Language : English
Default : No
Forced : No
Number of dynamic objects : 11
Bed channel count : 1 channel
Bed channel configuration : LFE

Text #1
ID : 4
Format : UTF-8
Codec ID : S_TEXT/UTF8
Codec ID/Info : UTF-8 Plain Text
Duration : 1 h 20 min
Bit rate : 0 b/s
Count of elements : 18
Stream size : 365 Bytes (0%)
Title : Forced
Language : Italian
Default : Yes
Forced : Yes

Text #2
ID : 5
Format : UTF-8
Codec ID : S_TEXT/UTF8
Codec ID/Info : UTF-8 Plain Text
Duration : 1 h 28 min
Bit rate : 62 b/s
Count of elements : 1247
Stream size : 40.2 KiB (0%)
Title : SDH
Language : Italian
Default : No
Forced : No

Text #3
ID : 6
Format : UTF-8
Codec ID : S_TEXT/UTF8
Codec ID/Info : UTF-8 Plain Text
Duration : 1 h 26 min
Bit rate : 71 b/s
Count of elements : 1201
Stream size : 44.9 KiB (0%)
Title : SDH
Language : English
Default : No
Forced : No

Menu
00:00:00.000 : en:Chapter 01
00:02:37.907 : en:Chapter 02
00:05:43.343 : en:Chapter 03
00:08:11.324 : en:Chapter 04
00:10:55.696 : en:Chapter 05
00:13:18.422 : en:Chapter 06
00:16:07.257 : en:Chapter 07
00:19:34.923 : en:Chapter 08
00:22:10.704 : en:Chapter 09
00:24:52.699 : en:Chapter 10
00:26:45.895 : en:Chapter 11
00:31:42.066 : en:Chapter 12
00:37:26.494 : en:Chapter 13
00:38:24.427 : en:Chapter 14
00:43:54.590 : en:Chapter 15
00:50:45.167 : en:Chapter 16
00:55:01.506 : en:Chapter 17
00:58:53.363 : en:Chapter 18
01:01:01.616 : en:Chapter 19
01:02:42.300 : en:Chapter 20
01:04:03.172 : en:Chapter 21
01:07:15.948 : en:Chapter 22
01:11:37.626 : en:Chapter 23
01:17:12.210 : en:Chapter 24
01:19:25.635 : en:Chapter 25
01:24:49.793 : en:Chapter 26
01:27:03.134 : en:Chapter 27
01:28:20.628 : en:Chapter 28[/spoiler]]]>
https://ilcorsaronero.link/tor/162456/Beetlejuice___Spiritello_porcello__1988__UHDRip_2160p_HEVC_HDR_ITA_AC3_ENG_TrueHD_Atmos_7_1_PirateMK https://ilcorsaronero.link/tor/162456/Beetlejuice___Spiritello_porcello__1988__UHDRip_2160p_HEVC_HDR_ITA_AC3_ENG_TrueHD_Atmos_7_1_PirateMK Sat, 19 Sep 2020 02:23:46 +0300
Philadelphia (1993) UHDRip 2160p HEVC HDR ITA AC3 ENG TrueHD Atmos 7.1 PirateMKV.mkv [BDRiP] [Seed (1)/Leech (2)]





[size=36pt]Philadelphia[/size]


Titolo: Philadelphia
Nazione: USA
Anno: 1993
Genere: Drama
Durata: 125 min
Regia: Jonathan Demme
Voti: IMDb (7.7/10), Rotten Tomatoes (80%), Metacritic (66/100)
Cast: Tom Hanks, Denzel Washington, Roberta Maxwell, Buzz Kilman



Andrew Beckett (Hanks), giovane e brillante avvocato di Filadelfia, viene licenziato dall'importante studio per cui lavora, perché malato di Aids. Con molte difficoltà trova un avvocato di colore, Joe Miller (Washington), che lo rappresenti nella causa che intenta al suo ex studio. Andrew è convinto di aver subito una discriminazione ingiusta e crudele. Vediamo il giovane letteralmente disfarsi per la malattia, conosciamo il suo compagno e la sua famiglia: madre, padre, fratelli e cognati tutti straordinariamente allineati e comprensivi.


[spoiler][/spoiler]


[spoiler]
General
Unique ID : 165557415086079072326905956510845092714 (0x7C8D32C54B2EC086624EBDADB037C36A)
Complete name : DownloadsOldPhiladelphia 1993Philadelphia (1993) UHDRip 2160p HEVC HDR ITA AC3 ENG TrueHD Atmos 7.1 PirateMKV.mkv
Format : Matroska
Format version : Version 4
File size : 20.7 GiB
Duration : 2 h 5 min
Overall bit rate mode : Variable
Overall bit rate : 23.6 Mb/s
Movie name : Philadelphia (1993) - PirateMKV
Encoded date : UTC 2020-09-06 22:20:21
Writing application : mkvmerge v50.0.0 ('Awakenings&#39 64-bit
Writing library : libebml v1.4.0 + libmatroska v1.6.2 / Lavf58.47.100
Copyright : Encoded by PirateMKV

Video
ID : 1
ID in the original source medium : 4113 (0x1011)
Format : HEVC
Format/Info : High Efficiency Video Coding
Format profile : Main 10@L5.1@High
HDR format : SMPTE ST 2086, HDR10 compatible
Codec ID : V_MPEGH/ISO/HEVC
Duration : 2 h 5 min
Bit rate : 19.5 Mb/s
Width : 3 840 pixels
Height : 2 076 pixels
Display aspect ratio : 1.85:1
Frame rate mode : Constant
Frame rate : 23.976 (24000/1001) FPS
Color space : YUV
Chroma subsampling : 4:2:0 (Type 2)
Bit depth : 10 bits
Bits/(Pixel*Frame) : 0.102
Stream size : 17.1 GiB (83%)
Writing library : x265 3.4+2-73ca1d7be377:[Windows][GCC 9.3.1][64 bit] 10bit
Encoding settings : cpuid=1111039 / frame-threads=3 / numa-pools=8 / wpp / no-pmode / no-pme / no-psnr / no-ssim / log-level=2 / input-csp=1 / input-res=3840x2076 / interlace=0 / total-frames=0 / level-idc=51 / high-tier=1 / uhd-bd=0 / ref=5 / no-allow-non-conformance / repeat-headers / annexb / aud / hrd / info / hash=0 / no-temporal-layers / no-open-gop / min-keyint=1 / keyint=24 / gop-lookahead=0 / bframes=8 / b-adapt=2 / b-pyramid / bframe-bias=0 / rc-lookahead=40 / lookahead-slices=0 / scenecut=40 / hist-scenecut=0 / radl=0 / no-splice / no-intra-refresh / ctu=64 / min-cu-size=8 / no-rect / no-amp / max-tu-size=32 / tu-inter-depth=4 / tu-intra-depth=4 / limit-tu=0 / rdoq-level=0 / dynamic-rd=0.00 / no-ssim-rd / signhide / no-tskip / nr-intra=0 / nr-inter=0 / no-constrained-intra / no-strong-intra-smoothing / max-merge=3 / limit-refs=3 / limit-modes / me=2 / subme=5 / merange=57 / temporal-mvp / no-frame-dup / no-hme / weightp / weightb / no-analyze-src-pics / deblock=-3:-3 / no-sao / no-sao-non-deblock / rd=4 / selective-sao=0 / no-early-skip / rskip / fast-intra / no-tskip-fast / no-cu-lossless / b-intra / no-splitrd-skip / rdpenalty=0 / psy-rd=2.00 / psy-rdoq=0.00 / no-rd-refine / no-lossless / cbqpoffs=-3 / crqpoffs=-3 / rc=crf / crf=22.0 / qcomp=0.70 / qpstep=4 / stats-write=0 / stats-read=0 / vbv-maxrate=160000 / vbv-bufsize=160000 / vbv-init=0.9 / crf-max=0.0 / crf-min=0.0 / ipratio=1.40 / pbratio=1.30 / aq-mode=3 / aq-strength=0.70 / no-cutree / zone-count=0 / no-strict-cbr / qg-size=32 / no-rc-grain / qpmax=69 / qpmin=0 / no-const-vbv / sar=1 / overscan=0 / videoformat=5 / range=0 / colorprim=9 / transfer=16 / colormatrix=9 / chromaloc=1 / chromaloc-top=2 / chromaloc-bottom=2 / display-window=0 / master-display=G(13250,34500)B(7500,3000)R(34000,16000)WP(15635,16450)L(40000000,50) / cll=3392,205 / min-luma=0 / max-luma=1023 / log2-max-poc-lsb=8 / vui-timing-info / vui-hrd-info / slices=1 / no-opt-qp-pps / no-opt-ref-list-length-pps / no-multi-pass-opt-rps / scenecut-bias=0.05 / hist-threshold=0.01 / no-opt-cu-delta-qp / no-aq-motion / hdr10 / hdr10-opt / no-dhdr10-opt / no-idr-recovery-sei / analysis-reuse-level=0 / analysis-save-reuse-level=0 / analysis-load-reuse-level=0 / scale-factor=0 / refine-intra=0 / refine-inter=0 / refine-mv=1 / refine-ctu-distortion=0 / no-limit-sao / ctu-info=0 / no-lowpass-dct / refine-analysis-type=0 / copy-pic=1 / max-ausize-factor=1.0 / no-dynamic-refine / no-single-sei / no-hevc-aq / no-svt / no-field / qp-adaptation-range=1.00 / no-scenecut-aware-qpconformance-window-offsets / right=0 / bottom=0 / decoder-max-rate=0
Language : English
Default : Yes
Forced : No
Color range : Limited
Color primaries : BT.2020
Transfer characteristics : PQ
Matrix coefficients : BT.2020 non-constant
Mastering display color primaries : Display P3
Mastering display luminance : min: 0.0050 cd/m2, max: 4000 cd/m2
Maximum Content Light Level : 3392 cd/m2
Maximum Frame-Average Light Level : 205 cd/m2
Original source medium : Blu-ray

Audio #1
ID : 2
Format : AC-3
Format/Info : Audio Coding 3
Commercial name : Dolby Digital
Codec ID : A_AC3
Duration : 2 h 5 min
Bit rate mode : Constant
Bit rate : 192 kb/s
Channel(s) : 2 channels
Channel layout : L R
Sampling rate : 48.0 kHz
Frame rate : 31.250 FPS (1536 SPF)
Compression mode : Lossy
Stream size : 172 MiB (1%)
Title : AC3 2.0
Language : Italian
Service kind : Complete Main
Default : Yes
Forced : No

Audio #2
ID : 3
Format : MLP FBA 16-ch
Format/Info : Meridian Lossless Packing FBA with 16-channel presentation
Commercial name : Dolby TrueHD with Dolby Atmos
Codec ID : A_TRUEHD
Duration : 2 h 5 min
Bit rate mode : Variable
Bit rate : 3 826 kb/s
Maximum bit rate : 6 003 kb/s
Channel(s) : 8 channels
Channel layout : L R C LFE Ls Rs Lb Rb
Sampling rate : 48.0 kHz
Frame rate : 1 200.000 FPS (40 SPF)
Compression mode : Lossless
Stream size : 3.35 GiB (16%)
Title : TrueHD Atmos 7.1
Language : English
Default : No
Forced : No
Number of dynamic objects : 11
Bed channel count : 1 channel
Bed channel configuration : LFE

Text #1
ID : 4
Format : UTF-8
Codec ID : S_TEXT/UTF8
Codec ID/Info : UTF-8 Plain Text
Duration : 1 h 41 min
Bit rate : 0 b/s
Count of elements : 11
Stream size : 218 Bytes (0%)
Title : Forced
Language : Italian
Default : Yes
Forced : Yes

Text #2
ID : 5
Format : UTF-8
Codec ID : S_TEXT/UTF8
Codec ID/Info : UTF-8 Plain Text
Duration : 1 h 55 min
Bit rate : 56 b/s
Count of elements : 1176
Stream size : 47.6 KiB (0%)
Title : Normal
Language : Italian
Default : No
Forced : No

Text #3
ID : 6
Format : UTF-8
Codec ID : S_TEXT/UTF8
Codec ID/Info : UTF-8 Plain Text
Duration : 1 h 55 min
Bit rate : 56 b/s
Count of elements : 1188
Stream size : 47.3 KiB (0%)
Title : Normal
Language : English
Default : No
Forced : No

Text #4
ID : 7
Format : UTF-8
Codec ID : S_TEXT/UTF8
Codec ID/Info : UTF-8 Plain Text
Duration : 1 h 59 min
Bit rate : 71 b/s
Count of elements : 1599
Stream size : 62.8 KiB (0%)
Title : SDH
Language : English
Default : No
Forced : No

Menu
00:00:00.000 : en:Chapter 01
00:05:42.091 : en:Chapter 02
00:13:43.280 : en:Chapter 03
00:24:50.989 : en:Chapter 04
00:32:43.169 : en:Chapter 05
00:39:50.846 : en:Chapter 06
00:46:06.346 : en:Chapter 07
00:55:22.569 : en:Chapter 08
01:01:07.580 : en:Chapter 09
01:07:20.953 : en:Chapter 10
01:16:01.139 : en:Chapter 11
01:26:39.527 : en:Chapter 12
01:36:53.682 : en:Chapter 13
01:44:12.371 : en:Chapter 14
01:47:53.592 : en:Chapter 15
01:55:40.558 : en:Chapter 16[/spoiler]]]>
https://ilcorsaronero.link/tor/162455/Philadelphia__1993__UHDRip_2160p_HEVC_HDR_ITA_AC3_ENG_TrueHD_Atmos_7_1_PirateMKV_mkv https://ilcorsaronero.link/tor/162455/Philadelphia__1993__UHDRip_2160p_HEVC_HDR_ITA_AC3_ENG_TrueHD_Atmos_7_1_PirateMKV_mkv Sat, 19 Sep 2020 02:21:51 +0300
Trafficanti (2016) UHDRip 2160p HEVC HDR ITA AC3 ENG DTS-HD MA 5.1 PirateMKV.mkv [BDRiP] [Seed (1)/Leech (4)]





[size=36pt]Trafficanti[/size]


Titolo: War Dogs
Nazione: USA, Cambodia, Romania
Anno: 2016
Genere: Biography, Comedy, Crime, Drama, War
Durata: 114 min
Regia: Todd Phillips
Voti: IMDb (7.1/10), Rotten Tomatoes (61%), Metacritic (57/100)
Cast: Miles Teller, Steve Lantz, Gregg Weiner, David Packouz



David Packouz sbarca il lunario facendo il massaggiatore, a Miami, dopo che gli sono andati male una serie di affari. Efraim Diveroli, invece, il suo migliore amico degli anni di scuola, ha un conto in banca a sei zeri. Quando la moglie rimane incinta, David accetta l'offera dell'amico di diventare suo socio, niente meno che nella vendita internazionale di armi. È l'era di George W. Bush e il governo, per rispondere alle accuse di favorire pochi soliti clienti, apre le porte delle aste sui contratti militari anche ai piccoli commercianti.


[spoiler][/spoiler]


[spoiler]
General
Unique ID : 324881527366350489598279975440613410244 (0xF469E7FC48ED0599F5B349A6DCD085C4)
Complete name : DownloadsOldTrafficanti 2016Trafficanti (2016) UHDRip 2160p HEVC HDR ITA AC3 ENG DTS-HD MA 5.1 PirateMKV.mkv
Format : Matroska
Format version : Version 4
File size : 14.8 GiB
Duration : 1 h 54 min
Overall bit rate mode : Variable
Overall bit rate : 18.6 Mb/s
Movie name : Trafficanti (2016) - PirateMKV
Encoded date : UTC 2020-09-05 09:51:30
Writing application : mkvmerge v49.0.0 ('Sick Of Losing Soulmates&#39 64-bit
Writing library : libebml v1.4.0 + libmatroska v1.6.1 / Lavf58.45.100
Copyright : Encoded by PirateMKV

Video
ID : 1
ID in the original source medium : 4113 (0x1011)
Format : HEVC
Format/Info : High Efficiency Video Coding
Format profile : Main 10@L5.1@High
HDR format : SMPTE ST 2086, HDR10 compatible
Codec ID : V_MPEGH/ISO/HEVC
Duration : 1 h 54 min
Bit rate : 14.4 Mb/s
Width : 3 840 pixels
Height : 1 600 pixels
Display aspect ratio : 2.40:1
Frame rate mode : Constant
Frame rate : 23.976 (24000/1001) FPS
Color space : YUV
Chroma subsampling : 4:2:0 (Type 2)
Bit depth : 10 bits
Bits/(Pixel*Frame) : 0.098
Stream size : 11.5 GiB (78%)
Writing library : x265 3.4+2-73ca1d7be377:[Windows][GCC 10.2.1][64 bit] 10bit
Encoding settings : cpuid=1111039 / frame-threads=3 / numa-pools=12 / wpp / no-pmode / no-pme / no-psnr / no-ssim / log-level=2 / input-csp=1 / input-res=3840x1600 / interlace=0 / total-frames=0 / level-idc=51 / high-tier=1 / uhd-bd=0 / ref=5 / no-allow-non-conformance / repeat-headers / annexb / aud / hrd / info / hash=0 / no-temporal-layers / no-open-gop / min-keyint=1 / keyint=24 / gop-lookahead=0 / bframes=8 / b-adapt=2 / b-pyramid / bframe-bias=0 / rc-lookahead=40 / lookahead-slices=0 / scenecut=40 / hist-scenecut=0 / radl=0 / no-splice / no-intra-refresh / ctu=64 / min-cu-size=8 / no-rect / no-amp / max-tu-size=32 / tu-inter-depth=4 / tu-intra-depth=4 / limit-tu=0 / rdoq-level=0 / dynamic-rd=0.00 / no-ssim-rd / signhide / no-tskip / nr-intra=0 / nr-inter=0 / no-constrained-intra / no-strong-intra-smoothing / max-merge=3 / limit-refs=3 / limit-modes / me=2 / subme=5 / merange=57 / temporal-mvp / no-frame-dup / no-hme / weightp / weightb / no-analyze-src-pics / deblock=-3:-3 / no-sao / no-sao-non-deblock / rd=4 / selective-sao=0 / no-early-skip / rskip / fast-intra / no-tskip-fast / no-cu-lossless / b-intra / no-splitrd-skip / rdpenalty=0 / psy-rd=2.00 / psy-rdoq=0.00 / no-rd-refine / no-lossless / cbqpoffs=-3 / crqpoffs=-3 / rc=crf / crf=17.5 / qcomp=0.70 / qpstep=4 / stats-write=0 / stats-read=0 / vbv-maxrate=160000 / vbv-bufsize=160000 / vbv-init=0.9 / crf-max=0.0 / crf-min=0.0 / ipratio=1.40 / pbratio=1.30 / aq-mode=3 / aq-strength=0.70 / no-cutree / zone-count=0 / no-strict-cbr / qg-size=32 / no-rc-grain / qpmax=69 / qpmin=0 / no-const-vbv / sar=1 / overscan=0 / videoformat=5 / range=0 / colorprim=9 / transfer=16 / colormatrix=9 / chromaloc=1 / chromaloc-top=2 / chromaloc-bottom=2 / display-window=0 / master-display=G(13250,34500)B(7500,3000)R(34000,16000)WP(15635,16450)L(40000000,50) / cll=1225,361 / min-luma=0 / max-luma=1023 / log2-max-poc-lsb=8 / vui-timing-info / vui-hrd-info / slices=1 / no-opt-qp-pps / no-opt-ref-list-length-pps / no-multi-pass-opt-rps / scenecut-bias=0.05 / hist-threshold=0.01 / no-opt-cu-delta-qp / no-aq-motion / hdr10 / hdr10-opt / no-dhdr10-opt / no-idr-recovery-sei / analysis-reuse-level=0 / analysis-save-reuse-level=0 / analysis-load-reuse-level=0 / scale-factor=0 / refine-intra=0 / refine-inter=0 / refine-mv=1 / refine-ctu-distortion=0 / no-limit-sao / ctu-info=0 / no-lowpass-dct / refine-analysis-type=0 / copy-pic=1 / max-ausize-factor=1.0 / no-dynamic-refine / no-single-sei / no-hevc-aq / no-svt / no-field / qp-adaptation-range=1.00 / no-scenecut-aware-qpconformance-window-offsets / right=0 / bottom=0 / decoder-max-rate=0
Language : English
Default : Yes
Forced : No
Color range : Limited
Color primaries : BT.2020
Transfer characteristics : PQ
Matrix coefficients : BT.2020 non-constant
Mastering display color primaries : Display P3
Mastering display luminance : min: 0.0050 cd/m2, max: 4000 cd/m2
Maximum Content Light Level : 1225 cd/m2
Maximum Frame-Average Light Level : 361 cd/m2
Original source medium : Blu-ray

Audio #1
ID : 2
Format : AC-3
Format/Info : Audio Coding 3
Commercial name : Dolby Digital
Codec ID : A_AC3
Duration : 1 h 54 min
Bit rate mode : Constant
Bit rate : 640 kb/s
Channel(s) : 6 channels
Channel layout : L R C LFE Ls Rs
Sampling rate : 48.0 kHz
Frame rate : 31.250 FPS (1536 SPF)
Compression mode : Lossy
Stream size : 523 MiB (3%)
Title : AC3 5.1
Language : Italian
Service kind : Complete Main
Default : Yes
Forced : No

Audio #2
ID : 3
Format : DTS XLL
Format/Info : Digital Theater Systems
Commercial name : DTS-HD Master Audio
Codec ID : A_DTS
Duration : 1 h 54 min
Bit rate mode : Variable
Bit rate : 3 525 kb/s
Channel(s) : 6 channels
Channel layout : C L R Ls Rs LFE
Sampling rate : 48.0 kHz
Frame rate : 93.750 FPS (512 SPF)
Bit depth : 24 bits
Compression mode : Lossless
Stream size : 2.81 GiB (19%)
Title : DTS-HD MA 5.1
Language : English
Default : No
Forced : No

Text #1
ID : 4
Format : UTF-8
Codec ID : S_TEXT/UTF8
Codec ID/Info : UTF-8 Plain Text
Duration : 1 h 53 min
Bit rate : 0 b/s
Count of elements : 33
Stream size : 822 Bytes (0%)
Title : Forced
Language : Italian
Default : Yes
Forced : Yes

Text #2
ID : 5
Format : UTF-8
Codec ID : S_TEXT/UTF8
Codec ID/Info : UTF-8 Plain Text
Duration : 1 h 53 min
Bit rate : 71 b/s
Count of elements : 1965
Stream size : 59.1 KiB (0%)
Title : SDH
Language : Italian
Default : No
Forced : No

Text #3
ID : 6
Format : UTF-8
Codec ID : S_TEXT/UTF8
Codec ID/Info : UTF-8 Plain Text
Duration : 1 h 53 min
Bit rate : 72 b/s
Count of elements : 1936
Stream size : 60.3 KiB (0%)
Title : SDH
Language : English
Default : No
Forced : No

Menu
00:00:00.000 : en:Chapter 01
00:10:13.529 : en:Chapter 02
00:19:00.931 : en:Chapter 03
00:30:20.777 : en:Chapter 04
00:40:02.525 : en:Chapter 05
00:50:56.178 : en:Chapter 06
00:59:34.362 : en:Chapter 07
01:10:59.171 : en:Chapter 08
01:20:08.887 : en:Chapter 09
01:32:05.895 : en:Chapter 10
01:39:36.220 : en:Chapter 11
01:48:19.117 : en:Chapter 12[/spoiler]]]>
https://ilcorsaronero.link/tor/162454/Trafficanti__2016__UHDRip_2160p_HEVC_HDR_ITA_AC3_ENG_DTS_HD_MA_5_1_PirateMKV_mkv https://ilcorsaronero.link/tor/162454/Trafficanti__2016__UHDRip_2160p_HEVC_HDR_ITA_AC3_ENG_DTS_HD_MA_5_1_PirateMKV_mkv Sat, 19 Sep 2020 02:20:38 +0300
La mummia - La tomba dellimperatore Dragone (2008) UHDRip 2160p HEVC HDR ITA DTS ENG DTS-X 7.1 Pirat [BDRiP] [Seed (1)/Leech (5)]





[size=36pt]La Mummia - La Tomba Dell'Imperatore Dragone[/size]


Titolo: The Mummy: Tomb of the Dragon Emperor
Nazione: USA, Germany, China, Canada
Anno: 2008
Genere: Action, Adventure, Fantasy, Horror, Thriller
Durata: 112 min
Regia: Rob Cohen
Voti: IMDb (5.2/10), Rotten Tomatoes (13%), Metacritic (31/100)
Cast: Brendan Fraser, Jet Li, Maria Bello, John Hannah



La Seconda Guerra Mondiale si è conclusa e anche la vita avventurosa di Rick O'Connell e della consorte Evelyn sembra ormai essersi acquietata nella routine quotidiana di un sontuoso palazzo. Ma non è così perché il passato torna a incrociare la loro strada. Nell'antichità infatti il potente imperatore cinese Han aveva cercato di raggiungere l'immortalità grazie alle arti della strega Zi Juan. Ne aveva però tradito le aspettative amorose nei confronti di un suo generale ed era stato inesorabilmente punito.


[spoiler][/spoiler]


[spoiler]
General
Unique ID : 6155491967053680676212087161050954972 (0x4A1812F7180B46FA98A811D01ECFCDC)
Complete name : DownloadsOldLa Mummia 3La mummia - La tomba dell'imperatore Dragone (200 UHDRip 2160p HEVC HDR ITA DTS ENG DTS-X 7.1 PirateMKV.mkv
Format : Matroska
Format version : Version 4
File size : 25.5 GiB
Duration : 1 h 54 min
Overall bit rate mode : Variable
Overall bit rate : 31.7 Mb/s
Movie name : La mummia - La tomba dell'imperatore Dragone (200 - PirateMKV
Encoded date : UTC 2020-09-02 19:19:08
Writing application : mkvmerge v49.0.0 ('Sick Of Losing Soulmates&#39 64-bit
Writing library : libebml v1.4.0 + libmatroska v1.6.1 / Lavf58.45.100
Copyright : Encoded by PirateMKV

Video
ID : 1
ID in the original source medium : 4113 (0x1011)
Format : HEVC
Format/Info : High Efficiency Video Coding
Format profile : Main 10@L5.1@High
HDR format : SMPTE ST 2086, HDR10 compatible
Codec ID : V_MPEGH/ISO/HEVC
Duration : 1 h 51 min
Bit rate : 27.1 Mb/s
Width : 3 840 pixels
Height : 1 600 pixels
Display aspect ratio : 2.40:1
Frame rate mode : Constant
Frame rate : 23.976 (24000/1001) FPS
Color space : YUV
Chroma subsampling : 4:2:0 (Type 2)
Bit depth : 10 bits
Bits/(Pixel*Frame) : 0.184
Stream size : 21.1 GiB (83%)
Writing library : x265 3.4+2-73ca1d7be377:[Windows][GCC 10.2.1][64 bit] 10bit
Encoding settings : cpuid=1111039 / frame-threads=3 / numa-pools=12 / wpp / no-pmode / no-pme / no-psnr / no-ssim / log-level=2 / input-csp=1 / input-res=3840x1600 / interlace=0 / total-frames=0 / level-idc=51 / high-tier=1 / uhd-bd=0 / ref=5 / no-allow-non-conformance / repeat-headers / annexb / aud / hrd / info / hash=0 / no-temporal-layers / no-open-gop / min-keyint=1 / keyint=24 / gop-lookahead=0 / bframes=8 / b-adapt=2 / b-pyramid / bframe-bias=0 / rc-lookahead=40 / lookahead-slices=0 / scenecut=40 / hist-scenecut=0 / radl=0 / no-splice / no-intra-refresh / ctu=64 / min-cu-size=8 / no-rect / no-amp / max-tu-size=32 / tu-inter-depth=4 / tu-intra-depth=4 / limit-tu=0 / rdoq-level=0 / dynamic-rd=0.00 / no-ssim-rd / signhide / no-tskip / nr-intra=0 / nr-inter=0 / no-constrained-intra / no-strong-intra-smoothing / max-merge=3 / limit-refs=3 / limit-modes / me=2 / subme=5 / merange=57 / temporal-mvp / no-frame-dup / no-hme / weightp / weightb / no-analyze-src-pics / deblock=-3:-3 / no-sao / no-sao-non-deblock / rd=4 / selective-sao=0 / no-early-skip / rskip / fast-intra / no-tskip-fast / no-cu-lossless / b-intra / no-splitrd-skip / rdpenalty=0 / psy-rd=2.00 / psy-rdoq=0.00 / no-rd-refine / no-lossless / cbqpoffs=-3 / crqpoffs=-3 / rc=crf / crf=19.5 / qcomp=0.70 / qpstep=4 / stats-write=0 / stats-read=0 / vbv-maxrate=160000 / vbv-bufsize=160000 / vbv-init=0.9 / crf-max=0.0 / crf-min=0.0 / ipratio=1.40 / pbratio=1.30 / aq-mode=3 / aq-strength=0.70 / no-cutree / zone-count=0 / no-strict-cbr / qg-size=32 / no-rc-grain / qpmax=69 / qpmin=0 / no-const-vbv / sar=1 / overscan=0 / videoformat=5 / range=0 / colorprim=9 / transfer=16 / colormatrix=9 / chromaloc=1 / chromaloc-top=2 / chromaloc-bottom=2 / display-window=0 / master-display=G(13250,34500)B(7500,3000)R(34000,16000)WP(15635,16450)L(10000000,50) / cll=1000,730 / min-luma=0 / max-luma=1023 / log2-max-poc-lsb=8 / vui-timing-info / vui-hrd-info / slices=1 / no-opt-qp-pps / no-opt-ref-list-length-pps / no-multi-pass-opt-rps / scenecut-bias=0.05 / hist-threshold=0.01 / no-opt-cu-delta-qp / no-aq-motion / hdr10 / hdr10-opt / no-dhdr10-opt / no-idr-recovery-sei / analysis-reuse-level=0 / analysis-save-reuse-level=0 / analysis-load-reuse-level=0 / scale-factor=0 / refine-intra=0 / refine-inter=0 / refine-mv=1 / refine-ctu-distortion=0 / no-limit-sao / ctu-info=0 / no-lowpass-dct / refine-analysis-type=0 / copy-pic=1 / max-ausize-factor=1.0 / no-dynamic-refine / no-single-sei / no-hevc-aq / no-svt / no-field / qp-adaptation-range=1.00 / no-scenecut-aware-qpconformance-window-offsets / right=0 / bottom=0 / decoder-max-rate=0
Language : English
Default : Yes
Forced : No
Color range : Limited
Color primaries : BT.2020
Transfer characteristics : PQ
Matrix coefficients : BT.2020 non-constant
Mastering display color primaries : Display P3
Mastering display luminance : min: 0.0050 cd/m2, max: 1000 cd/m2
Maximum Content Light Level : 1000 cd/m2
Maximum Frame-Average Light Level : 730 cd/m2
Original source medium : Blu-ray

Audio #1
ID : 2
Format : DTS
Format/Info : Digital Theater Systems
Codec ID : A_DTS
Duration : 1 h 51 min
Bit rate mode : Constant
Bit rate : 768 kb/s
Channel(s) : 6 channels
Channel layout : C L R Ls Rs LFE
Sampling rate : 48.0 kHz
Frame rate : 93.750 FPS (512 SPF)
Bit depth : 24 bits
Compression mode : Lossy
Stream size : 614 MiB (2%)
Title : DTS 5.1
Language : Italian
Default : Yes
Forced : No

Audio #2
ID : 3
Format : DTS XLL X
Format/Info : Digital Theater Systems
Commercial name : DTS-HD Master Audio
Codec ID : A_DTS
Duration : 1 h 54 min
Bit rate mode : Variable
Bit rate : 4 683 kb/s
Channel(s) : 8 channels
Channel(s)_Original : Object Based
ChannelLayout_Original : Object Based
Sampling rate : 48.0 kHz
Frame rate : 93.750 FPS (512 SPF)
Bit depth : 24 bits
Stream size : 3.76 GiB (15%)
Title : DTS-X
Language : English
Default : No
Forced : No

Text #1
ID : 4
Format : UTF-8
Codec ID : S_TEXT/UTF8
Codec ID/Info : UTF-8 Plain Text
Duration : 1 h 51 min
Bit rate : 4 b/s
Count of elements : 139
Stream size : 3.50 KiB (0%)
Title : Forced
Language : Italian
Default : Yes
Forced : Yes

Text #2
ID : 5
Format : UTF-8
Codec ID : S_TEXT/UTF8
Codec ID/Info : UTF-8 Plain Text
Duration : 1 h 51 min
Bit rate : 38 b/s
Count of elements : 928
Stream size : 31.1 KiB (0%)
Title : Normal
Language : Italian
Default : No
Forced : No

Text #3
ID : 6
Format : UTF-8
Codec ID : S_TEXT/UTF8
Codec ID/Info : UTF-8 Plain Text
Duration : 1 h 40 min
Bit rate : 4 b/s
Count of elements : 133
Stream size : 3.13 KiB (0%)
Title : Forced
Language : English
Default : No
Forced : No

Text #4
ID : 7
Format : UTF-8
Codec ID : S_TEXT/UTF8
Codec ID/Info : UTF-8 Plain Text
Duration : 1 h 40 min
Bit rate : 47 b/s
Count of elements : 1076
Stream size : 34.7 KiB (0%)
Title : SDH
Language : English
Default : No
Forced : No

Menu
00:00:00.000 : en:Chapter 01
00:05:24.032 : en:Chapter 02
00:09:52.133 : en:Chapter 03
00:14:15.479 : en:Chapter 04
00:19:13.110 : en:Chapter 05
00:24:33.597 : en:Chapter 06
00:30:57.647 : en:Chapter 07
00:35:30.753 : en:Chapter 08
00:42:16.367 : en:Chapter 09
00:48:17.686 : en:Chapter 10
00:52:26.643 : en:Chapter 11
00:57:28.236 : en:Chapter 12
01:02:40.590 : en:Chapter 13
01:09:51.937 : en:Chapter 14
01:15:54.216 : en:Chapter 15
01:21:00.689 : en:Chapter 16
01:25:33.211 : en:Chapter 17
01:33:54.962 : en:Chapter 18
01:39:53.696 : en:Chapter 19
01:41:28.499 : en:Chapter 20[/spoiler]
]]>
https://ilcorsaronero.link/tor/162453/La_mummia___La_tomba_dellimperatore_Dragone__2008__UHDRip_2160p_HEVC_HDR_ITA_DTS_ENG_DTS_X_7_1_Pirat https://ilcorsaronero.link/tor/162453/La_mummia___La_tomba_dellimperatore_Dragone__2008__UHDRip_2160p_HEVC_HDR_ITA_DTS_ENG_DTS_X_7_1_Pirat Sat, 19 Sep 2020 02:19:20 +0300
La mummia - Il ritorno (2001) UHDRip 2160p HEVC HDR ITA DTS ENG DTS-X 7.1 PirateMKV.mkv [BDRiP] [Seed (1)/Leech (7)]





[size=36pt]La Mummia - Il Ritorno[/size]


Titolo: The Mummy Returns
Nazione: USA
Anno: 2001
Genere: Action, Adventure, Fantasy, Thriller
Durata: 130 min
Regia: Stephen Sommers
Voti: IMDb (6.3/10), Rotten Tomatoes (47%), Metacritic (48/100)
Cast: Brendan Fraser, Rachel Weisz, John Hannah, Arnold Vosloo



Dopo il grande successo del primo episodio poteva non esserci il ritorno della mummia? No davvero. Ecco il film tracimare di effetti speciali, sempre più stupefacenti, e sempre più all'eccesso, fino al punto di oltrepassare il confine. Che la storia presenti un incremento di intreccio è naturale: le due mummie del primo episodio, portate a Londra, resuscitano (e come no?), e cercano di rapire il figlio di Evelyn e di Rick. Primo nodo. Si aggiunge un nuovo personaggio già sulle magliette dei teen americani, il Re scorpione.


[spoiler][/spoiler]


[spoiler]
General
Unique ID : 303998771136097534655235428592459296531 (0xE4B4089C8D4CD3DBD27AD546631DAF13)
Complete name : DownloadsOldLa Mummia 2La mummia - Il ritorno (2001) UHDRip 2160p HEVC HDR ITA DTS ENG DTS-X 7.1 PirateMKV.mkv
Format : Matroska
Format version : Version 4
File size : 32.7 GiB
Duration : 2 h 9 min
Overall bit rate mode : Variable
Overall bit rate : 36.1 Mb/s
Movie name : La mummia - Il ritorno (2001) - PirateMKV
Encoded date : UTC 2020-08-30 08:22:19
Writing application : mkvmerge v49.0.0 ('Sick Of Losing Soulmates&#39 64-bit
Writing library : libebml v1.4.0 + libmatroska v1.6.1 / Lavf58.45.100
Copyright : Encoded by PirateMKV

Video
ID : 1
ID in the original source medium : 4113 (0x1011)
Format : HEVC
Format/Info : High Efficiency Video Coding
Format profile : Main 10@L5.1@High
HDR format : SMPTE ST 2086, HDR10 compatible
Codec ID : V_MPEGH/ISO/HEVC
Duration : 2 h 9 min
Bit rate : 27.0 Mb/s
Width : 3 840 pixels
Height : 1 632 pixels
Display aspect ratio : 2.35:1
Frame rate mode : Constant
Frame rate : 23.976 (24000/1001) FPS
Color space : YUV
Chroma subsampling : 4:2:0 (Type 2)
Bit depth : 10 bits
Bits/(Pixel*Frame) : 0.180
Stream size : 24.4 GiB (75%)
Writing library : x265 3.4+2-73ca1d7be377:[Windows][GCC 10.2.1][64 bit] 10bit
Encoding settings : cpuid=1111039 / frame-threads=3 / numa-pools=12 / wpp / no-pmode / no-pme / no-psnr / no-ssim / log-level=2 / input-csp=1 / input-res=3840x1632 / interlace=0 / total-frames=0 / level-idc=51 / high-tier=1 / uhd-bd=0 / ref=5 / no-allow-non-conformance / repeat-headers / annexb / aud / hrd / info / hash=0 / no-temporal-layers / no-open-gop / min-keyint=1 / keyint=24 / gop-lookahead=0 / bframes=8 / b-adapt=2 / b-pyramid / bframe-bias=0 / rc-lookahead=40 / lookahead-slices=0 / scenecut=40 / hist-scenecut=0 / radl=0 / no-splice / no-intra-refresh / ctu=64 / min-cu-size=8 / no-rect / no-amp / max-tu-size=32 / tu-inter-depth=4 / tu-intra-depth=4 / limit-tu=0 / rdoq-level=0 / dynamic-rd=0.00 / no-ssim-rd / signhide / no-tskip / nr-intra=0 / nr-inter=0 / no-constrained-intra / no-strong-intra-smoothing / max-merge=3 / limit-refs=3 / limit-modes / me=2 / subme=5 / merange=57 / temporal-mvp / no-frame-dup / no-hme / weightp / weightb / no-analyze-src-pics / deblock=-3:-3 / no-sao / no-sao-non-deblock / rd=4 / selective-sao=0 / no-early-skip / rskip / fast-intra / no-tskip-fast / no-cu-lossless / b-intra / no-splitrd-skip / rdpenalty=0 / psy-rd=2.00 / psy-rdoq=0.00 / no-rd-refine / no-lossless / cbqpoffs=-3 / crqpoffs=-3 / rc=crf / crf=19.5 / qcomp=0.70 / qpstep=4 / stats-write=0 / stats-read=0 / vbv-maxrate=160000 / vbv-bufsize=160000 / vbv-init=0.9 / crf-max=0.0 / crf-min=0.0 / ipratio=1.40 / pbratio=1.30 / aq-mode=3 / aq-strength=0.70 / no-cutree / zone-count=0 / no-strict-cbr / qg-size=32 / no-rc-grain / qpmax=69 / qpmin=0 / no-const-vbv / sar=1 / overscan=0 / videoformat=5 / range=0 / colorprim=9 / transfer=16 / colormatrix=9 / chromaloc=1 / chromaloc-top=2 / chromaloc-bottom=2 / display-window=0 / master-display=G(13250,34500)B(7500,3000)R(34000,16000)WP(15635,16450)L(10000000,50) / cll=984,302 / min-luma=0 / max-luma=1023 / log2-max-poc-lsb=8 / vui-timing-info / vui-hrd-info / slices=1 / no-opt-qp-pps / no-opt-ref-list-length-pps / no-multi-pass-opt-rps / scenecut-bias=0.05 / hist-threshold=0.01 / no-opt-cu-delta-qp / no-aq-motion / hdr10 / hdr10-opt / no-dhdr10-opt / no-idr-recovery-sei / analysis-reuse-level=0 / analysis-save-reuse-level=0 / analysis-load-reuse-level=0 / scale-factor=0 / refine-intra=0 / refine-inter=0 / refine-mv=1 / refine-ctu-distortion=0 / no-limit-sao / ctu-info=0 / no-lowpass-dct / refine-analysis-type=0 / copy-pic=1 / max-ausize-factor=1.0 / no-dynamic-refine / no-single-sei / no-hevc-aq / no-svt / no-field / qp-adaptation-range=1.00 / no-scenecut-aware-qpconformance-window-offsets / right=0 / bottom=0 / decoder-max-rate=0
Language : English
Default : Yes
Forced : No
Color range : Limited
Color primaries : BT.2020
Transfer characteristics : PQ
Matrix coefficients : BT.2020 non-constant
Mastering display color primaries : Display P3
Mastering display luminance : min: 0.0050 cd/m2, max: 1000 cd/m2
Maximum Content Light Level : 984 cd/m2
Maximum Frame-Average Light Level : 302 cd/m2
Original source medium : Blu-ray

Audio #1
ID : 2
Format : DTS
Format/Info : Digital Theater Systems
Codec ID : A_DTS
Duration : 2 h 9 min
Bit rate mode : Constant
Bit rate : 768 kb/s
Channel(s) : 6 channels
Channel layout : C L R Ls Rs LFE
Sampling rate : 48.0 kHz
Frame rate : 93.750 FPS (512 SPF)
Bit depth : 24 bits
Compression mode : Lossy
Stream size : 712 MiB (2%)
Title : DTS 5.1
Language : Italian
Default : Yes
Forced : No

Audio #2
ID : 3
Format : DTS XLL X
Format/Info : Digital Theater Systems
Commercial name : DTS-HD Master Audio
Codec ID : A_DTS
Duration : 2 h 9 min
Bit rate mode : Variable
Bit rate : 8 365 kb/s
Channel(s) : 8 channels
Channel(s)_Original : Object Based
ChannelLayout_Original : Object Based
Sampling rate : 48.0 kHz
Frame rate : 93.750 FPS (512 SPF)
Bit depth : 24 bits
Stream size : 7.57 GiB (23%)
Title : DTS-X
Language : English
Default : No
Forced : No

Text #1
ID : 4
Format : UTF-8
Codec ID : S_TEXT/UTF8
Codec ID/Info : UTF-8 Plain Text
Duration : 1 h 56 min
Bit rate : 3 b/s
Count of elements : 109
Stream size : 2.65 KiB (0%)
Title : Forced
Language : Italian
Default : Yes
Forced : Yes

Text #2
ID : 5
Format : UTF-8
Codec ID : S_TEXT/UTF8
Codec ID/Info : UTF-8 Plain Text
Duration : 2 h 1 min
Bit rate : 33 b/s
Count of elements : 887
Stream size : 29.4 KiB (0%)
Title : Normal
Language : Italian
Default : No
Forced : No

Text #3
ID : 6
Format : UTF-8
Codec ID : S_TEXT/UTF8
Codec ID/Info : UTF-8 Plain Text
Duration : 1 h 56 min
Bit rate : 2 b/s
Count of elements : 107
Stream size : 2.41 KiB (0%)
Title : Forced
Language : English
Default : No
Forced : No

Text #4
ID : 7
Format : UTF-8
Codec ID : S_TEXT/UTF8
Codec ID/Info : UTF-8 Plain Text
Duration : 2 h 6 min
Bit rate : 37 b/s
Count of elements : 1170
Stream size : 34.8 KiB (0%)
Title : SDH
Language : English
Default : No
Forced : No

Menu
00:00:00.000 : en:Chapter 01
00:04:40.488 : en:Chapter 02
00:10:02.518 : en:Chapter 03
00:13:32.394 : en:Chapter 04
00:17:02.896 : en:Chapter 05
00:23:19.773 : en:Chapter 06
00:26:16.157 : en:Chapter 07
00:35:24.247 : en:Chapter 08
00:42:00.684 : en:Chapter 09
00:46:50.724 : en:Chapter 10
00:56:02.150 : en:Chapter 11
01:06:36.409 : en:Chapter 12
01:16:59.656 : en:Chapter 13
01:27:32.664 : en:Chapter 14
01:35:26.637 : en:Chapter 15
01:42:43.073 : en:Chapter 16
01:47:42.789 : en:Chapter 17
01:51:19.839 : en:Chapter 18
01:53:25.381 : en:Chapter 19
02:01:48.175 : en:Chapter 20[/spoiler]]]>
https://ilcorsaronero.link/tor/162452/La_mummia___Il_ritorno__2001__UHDRip_2160p_HEVC_HDR_ITA_DTS_ENG_DTS_X_7_1_PirateMKV_mkv https://ilcorsaronero.link/tor/162452/La_mummia___Il_ritorno__2001__UHDRip_2160p_HEVC_HDR_ITA_DTS_ENG_DTS_X_7_1_PirateMKV_mkv Sat, 19 Sep 2020 01:48:48 +0300
La mummia (1999) UHDRip 2160p HEVC HDR ITA DTS ENG DTS-X 7.1 PirateMKV.mkv [BDRiP] [Seed (3)/Leech (9)]





[size=36pt]La Mummia[/size]


Titolo: The Mummy
Nazione: USA, UK, Morocco
Anno: 1999
Genere: Action, Adventure, Fantasy
Durata: 124 min
Regia: Stephen Sommers
Voti: IMDb (7.0/10), Rotten Tomatoes (61%), Metacritic (48/100)
Cast: Brendan Fraser, Rachel Weisz, John Hannah, Arnold Vosloo



Nuova ed efficace riproposta della mummia che torna alla vita e semina terrore. Siamo nel 1923: tra le rovine sepolte sotto la sabbia si aggira una umanità varia e indaffarata che rischia di risvegliare il grande sacerdote Imhotep, mummificato vivo. Ciò malauguratamente succede e allora si salvi chi può! Dimenticate, però, atmosfere espressioniste e terrori archetipici: qui spira un'aria di divertimento citazionista non spiacevole. Gli autori infatti si sono preoccupati di parodiare le scene più forti e lo hanno fatto con gusto e misura.


[spoiler][/spoiler]


[spoiler]
General
Unique ID : 99516460370233478021525293678572180915 (0x4ADE2C50315ED4E539F30C958D0195B3)
Complete name : DownloadsOldLa Mummia 1La mummia (1999) UHDRip 2160p HEVC HDR ITA DTS ENG DTS-X 7.1 PirateMKV.mkv
Format : Matroska
Format version : Version 4
File size : 24.4 GiB
Duration : 2 h 4 min
Overall bit rate mode : Variable
Overall bit rate : 27.9 Mb/s
Movie name : La mummia (1999) - PirateMKV
Encoded date : UTC 2020-08-30 09:38:39
Writing application : mkvmerge v49.0.0 ('Sick Of Losing Soulmates&#39 64-bit
Writing library : libebml v1.4.0 + libmatroska v1.6.1 / Lavf58.47.100
Copyright : Encoded by PirateMKV

Video
ID : 1
ID in the original source medium : 4113 (0x1011)
Format : HEVC
Format/Info : High Efficiency Video Coding
Format profile : Main 10@L5.1@High
HDR format : SMPTE ST 2086, HDR10 compatible
Codec ID : V_MPEGH/ISO/HEVC
Duration : 2 h 4 min
Bit rate : 19.7 Mb/s
Width : 3 840 pixels
Height : 1 632 pixels
Display aspect ratio : 2.35:1
Frame rate mode : Constant
Frame rate : 23.976 (24000/1001) FPS
Color space : YUV
Chroma subsampling : 4:2:0 (Type 2)
Bit depth : 10 bits
Bits/(Pixel*Frame) : 0.131
Stream size : 17.2 GiB (70%)
Writing library : x265 3.4+2-73ca1d7be377:[Windows][GCC 9.3.1][64 bit] 10bit
Encoding settings : cpuid=1111039 / frame-threads=3 / numa-pools=8 / wpp / no-pmode / no-pme / no-psnr / no-ssim / log-level=2 / input-csp=1 / input-res=3840x1632 / interlace=0 / total-frames=0 / level-idc=51 / high-tier=1 / uhd-bd=0 / ref=5 / no-allow-non-conformance / repeat-headers / annexb / aud / hrd / info / hash=0 / no-temporal-layers / no-open-gop / min-keyint=1 / keyint=24 / gop-lookahead=0 / bframes=8 / b-adapt=2 / b-pyramid / bframe-bias=0 / rc-lookahead=40 / lookahead-slices=0 / scenecut=40 / hist-scenecut=0 / radl=0 / no-splice / no-intra-refresh / ctu=64 / min-cu-size=8 / no-rect / no-amp / max-tu-size=32 / tu-inter-depth=4 / tu-intra-depth=4 / limit-tu=0 / rdoq-level=0 / dynamic-rd=0.00 / no-ssim-rd / signhide / no-tskip / nr-intra=0 / nr-inter=0 / no-constrained-intra / no-strong-intra-smoothing / max-merge=3 / limit-refs=3 / limit-modes / me=2 / subme=5 / merange=57 / temporal-mvp / no-frame-dup / no-hme / weightp / weightb / no-analyze-src-pics / deblock=-3:-3 / no-sao / no-sao-non-deblock / rd=4 / selective-sao=0 / no-early-skip / rskip / fast-intra / no-tskip-fast / no-cu-lossless / b-intra / no-splitrd-skip / rdpenalty=0 / psy-rd=2.00 / psy-rdoq=0.00 / no-rd-refine / no-lossless / cbqpoffs=-3 / crqpoffs=-3 / rc=crf / crf=20.0 / qcomp=0.70 / qpstep=4 / stats-write=0 / stats-read=0 / vbv-maxrate=160000 / vbv-bufsize=160000 / vbv-init=0.9 / crf-max=0.0 / crf-min=0.0 / ipratio=1.40 / pbratio=1.30 / aq-mode=3 / aq-strength=0.70 / no-cutree / zone-count=0 / no-strict-cbr / qg-size=32 / no-rc-grain / qpmax=69 / qpmin=0 / no-const-vbv / sar=1 / overscan=0 / videoformat=5 / range=0 / colorprim=9 / transfer=16 / colormatrix=9 / chromaloc=1 / chromaloc-top=2 / chromaloc-bottom=2 / display-window=0 / master-display=G(13250,34500)B(7500,3000)R(34000,16000)WP(15635,16450)L(10000000,0) / cll=1033,345 / min-luma=0 / max-luma=1023 / log2-max-poc-lsb=8 / vui-timing-info / vui-hrd-info / slices=1 / no-opt-qp-pps / no-opt-ref-list-length-pps / no-multi-pass-opt-rps / scenecut-bias=0.05 / hist-threshold=0.01 / no-opt-cu-delta-qp / no-aq-motion / hdr10 / hdr10-opt / no-dhdr10-opt / no-idr-recovery-sei / analysis-reuse-level=0 / analysis-save-reuse-level=0 / analysis-load-reuse-level=0 / scale-factor=0 / refine-intra=0 / refine-inter=0 / refine-mv=1 / refine-ctu-distortion=0 / no-limit-sao / ctu-info=0 / no-lowpass-dct / refine-analysis-type=0 / copy-pic=1 / max-ausize-factor=1.0 / no-dynamic-refine / no-single-sei / no-hevc-aq / no-svt / no-field / qp-adaptation-range=1.00 / no-scenecut-aware-qpconformance-window-offsets / right=0 / bottom=0 / decoder-max-rate=0
Language : English
Default : Yes
Forced : No
Color range : Limited
Color primaries : BT.2020
Transfer characteristics : PQ
Matrix coefficients : BT.2020 non-constant
Mastering display color primaries : Display P3
Mastering display luminance : min: 0.0000 cd/m2, max: 1000 cd/m2
Maximum Content Light Level : 1033 cd/m2
Maximum Frame-Average Light Level : 345 cd/m2
Original source medium : Blu-ray

Audio #1
ID : 2
Format : DTS
Format/Info : Digital Theater Systems
Codec ID : A_DTS
Duration : 2 h 4 min
Bit rate mode : Constant
Bit rate : 768 kb/s
Channel(s) : 6 channels
Channel layout : C L R Ls Rs LFE
Sampling rate : 48.0 kHz
Frame rate : 93.750 FPS (512 SPF)
Bit depth : 24 bits
Compression mode : Lossy
Stream size : 686 MiB (3%)
Title : DTS 5.1
Language : Italian
Default : Yes
Forced : No

Audio #2
ID : 3
Format : DTS XLL X
Format/Info : Digital Theater Systems
Commercial name : DTS-HD Master Audio
Codec ID : A_DTS
Duration : 2 h 4 min
Bit rate mode : Variable
Bit rate : 7 482 kb/s
Channel(s) : 8 channels
Channel(s)_Original : Object Based
ChannelLayout_Original : Object Based
Sampling rate : 48.0 kHz
Frame rate : 93.750 FPS (512 SPF)
Bit depth : 24 bits
Stream size : 6.52 GiB (27%)
Title : DTS-X
Language : English
Default : No
Forced : No

Text #1
ID : 4
Format : UTF-8
Codec ID : S_TEXT/UTF8
Codec ID/Info : UTF-8 Plain Text
Duration : 1 h 48 min
Bit rate : 1 b/s
Count of elements : 45
Stream size : 970 Bytes (0%)
Title : Forced
Language : Italian
Default : Yes
Forced : Yes

Text #2
ID : 5
Format : UTF-8
Codec ID : S_TEXT/UTF8
Codec ID/Info : UTF-8 Plain Text
Duration : 1 h 55 min
Bit rate : 39 b/s
Count of elements : 1079
Stream size : 33.3 KiB (0%)
Title : Normal
Language : Italian
Default : No
Forced : No

Text #3
ID : 6
Format : UTF-8
Codec ID : S_TEXT/UTF8
Codec ID/Info : UTF-8 Plain Text
Duration : 1 h 48 min
Bit rate : 1 b/s
Count of elements : 41
Stream size : 924 Bytes (0%)
Title : Forced
Language : English
Default : No
Forced : No

Text #4
ID : 7
Format : UTF-8
Codec ID : S_TEXT/UTF8
Codec ID/Info : UTF-8 Plain Text
Duration : 1 h 55 min
Bit rate : 49 b/s
Count of elements : 1361
Stream size : 41.6 KiB (0%)
Title : SDH
Language : English
Default : No
Forced : No

Menu
00:00:00.000 : en:Chapter 01
00:07:10.430 : en:Chapter 02
00:12:19.155 : en:Chapter 03
00:23:19.731 : en:Chapter 04
00:29:03.116 : en:Chapter 05
00:36:46.120 : en:Chapter 06
00:43:38.907 : en:Chapter 07
00:49:06.610 : en:Chapter 08
00:53:33.877 : en:Chapter 09
00:57:29.654 : en:Chapter 10
01:11:13.352 : en:Chapter 11
01:18:48.306 : en:Chapter 12
01:27:29.619 : en:Chapter 13
01:30:03.898 : en:Chapter 14
01:36:32.870 : en:Chapter 15
01:43:58.023 : en:Chapter 16
01:49:44.661 : en:Chapter 17
01:56:51.671 : en:Chapter 18[/spoiler]]]>
https://ilcorsaronero.link/tor/162451/La_mummia__1999__UHDRip_2160p_HEVC_HDR_ITA_DTS_ENG_DTS_X_7_1_PirateMKV_mkv https://ilcorsaronero.link/tor/162451/La_mummia__1999__UHDRip_2160p_HEVC_HDR_ITA_DTS_ENG_DTS_X_7_1_PirateMKV_mkv Sat, 19 Sep 2020 01:46:45 +0300
The Good Doctor Stagione 3 [COMPLETA] 720p.H264.Ita.Ac3.Eng.Ac3.5.1.Sub.Ita.Eng.MIRCrew [Serie TV] [Seed (1)/Leech (0)]

THE GOOD DOCTOR
STAGIONE 3





Titolo originale The Good Doctor
Paese di produzione Stati Uniti d'America
Anno 2018/2020
Serie TV
Stagioni 3
Episodi 54
Durata 40 minuti circa
Colore colore
Audio sonoro
Genere Drammatico Medico
Aspect ratio 16:9
Dimensione Totale  
Ideatore David Shore



   Freddie Highmore: Dr. Shaun Murphy
   Nicholas Gonzalez: Dr. Neil Melendez
   Antonia Thomas: Dr. Claire Browne
   Daniel Dae Kim: Dr. Jackson Han
   Chuku Modu: Dr. Jared Kalu
   Beau Garrett: Jessica Preston
   Hill Harper: Dr. Marcus Andrews
   Richard Schiff: Dr. Aaron Glassman
   Tamlyn Tomita: Allegra Aoki
       


La serie segue le vicende di Shaun Murphy, un giovane medico specializzando in chirurgia autistico con la Sindrome del savant, proveniente da una cittadina nel Wyoming, Casper, dove ha vissuto un'infanzia travagliata.



The Good Doctor is an American medical drama television series based on the 2013 award-winning South Korean series of the same name. Daniel Dae Kim, the actor, first noticed the series and bought the rights for his production company. He began adapting the series and in 2015 eventually shopped it to CBS, his home network. CBS decided against creating a pilot. Because Kim felt so strongly about the series, he bought back the rights from CBS. Eventually, Sony Pictures Television and Kim worked out a deal and brought on David Shore, creator of the Fox hit medical drama, House, to develop the series.[1]

The show is produced by Sony Pictures Television and ABC Studios, in association with production companies Shore Z Productions, 3AD, and Entermedia. David Shore serves as showrunner and Daniel Dae Kim is an executive producer for the show.

The series stars Freddie Highmore as Shaun Murphy, a young savant autistic surgical resident at San Jose St. Bonaventure Hospital. Antonia Thomas, Nicholas Gonzalez, Beau Garrett, Hill Harper, Richard Schiff, and Tamlyn Tomita also star in the show. The series received a put pilot commitment at ABC after a previous attempted series did not move forward at CBS Television Studios in 2015; The Good Doctor was ordered to series in May 2017. On October 3, 2017, ABC picked up the series for a full season of 18 episodes. The series is primarily filmed in Vancouver, British Columbia.

The series debuted on September 25, 2017. The Good Doctor has received mixed to positive reviews from critics, with particular praise given to Highmore's performance, and strong television ratings. In March 2018, ABC renewed the series for a second season, which is set to premiere on September 24, 2018.
Contents

(BY WIKIPEDIA)


https://www.imdb.com/title/tt6470478/













Info sul file

Nome                        The Good Doctor Stagione 3 Ep. 01 Disastro 720p Ita Ac3 Eng Ac3 5.1
                           Sub Ita Eng x264 MIRCrew.mkv
Data                        Sun, 15 Mar 2020 11:35:18 +0100
Dimensione                  762,016,693 bytes (726.715749 MiB)

Magic

Tipo file                   data

Info generiche

Durata                      00:41:25 (2484.704 s)
Contenitore                 matroska
Production date             Sun, 15 Mar 2020 11:22:04 +0100
Totale tracce               5
Traccia n. 1                video (V_MPEG4/ISO/AVC) {und}
Traccia n. 2                audio (A_AC3) [ITA] {ita}
Traccia n. 3                audio (A_AC3) [ENG] {eng}
Traccia n. 4                subtitle (S_TEXT/ASS) {ita}
Traccia n. 5                subtitle (S_TEXT/ASS) {eng}
Muxing library              Lavf58.29.100
Writing application         HandBrake 1.3.1 2020010400

Dati rilevanti

Risoluzione                 1280 x 720
Larghezza                   multipla di 32
Altezza                     multipla di 16
DRF medio                   17.695758
Deviazione standard         4.47448
Media pesata dev. std.      4.255389

Traccia video

Codec ID                    V_MPEG4/ISO/AVC
Risoluzione                 1280 x 720
Frame aspect ratio          16:9 = 1.777778
Pixel aspect ratio          1:1 = 1
Display aspect ratio        16:9 = 1.777778
Framerate                   25 fps
Dimensione stream           581,413,873 bytes (554.479478 MiB)
Durata                      00:41:25 (2484.6 s)
Bitrate (bs)                1872.05626 kbps
Qf                          0.081252

Traccia audio nr. 1

Codec ID                    A_AC3
Freq. campionamento         48000 Hz
Canali                      2
Dimensione stream           59,632,896 bytes (56.870361 MiB)
Tipo di bitstream (bs)      AC3
Frames (bs)                 77,647
Durata                      00:41:25 (2484.704 s)
Chunk-aligned (bs)          Sì
Bitrate (bs)                192 kbps CBR
Freq. campionamento (bs)    48000 Hz
Modo (bs)                   stereo

Traccia audio nr. 2

Codec ID                    A_AC3
Freq. campionamento         48000 Hz
Canali                      6
Dimensione stream           119,262,720 bytes (113.737793 MiB)
Tipo di bitstream (bs)      AC3
Frames (bs)                 77,645
Durata                      00:41:25 (2484.64 s)
Chunk-aligned (bs)          Sì
Bitrate (bs)                384 kbps CBR
Freq. campionamento (bs)    48000 Hz
Modo (bs)                   3 front, 2 rear, 1 LFE

Bitstream video

Tipo di bitstream           MPEG-4 Part 10
User data                   x264 | core 157 r2935 545de2f | H.264/MPEG-4 AVC codec
User data                   Copyleft 2003-2018 | http://www.videolan.org/x264.html | cabac=1
User data                   ref=2 | deblock=1:0:0 | analyse=0x1:0x111 | me=hex | subme=6 | psy=1
User data                   psy_rd=1.00:0.00 | mixed_ref=1 | me_range=16 | chroma_me=1
User data                   trellis=1 | 8x8dct=0 | cqm=0 | deadzone=21,11 | fast_pskip=1
User data                   chroma_qp_offset=-2 | threads=9 | lookahead_threads=1
User data                   sliced_threads=0 | nr=0 | decimate=1 | interlaced=0
User data                   bluray_compat=0 | constrained_intra=0 | bframes=3 | b_pyramid=2
User data                   b_adapt=1 | b_bias=0 | direct=1 | weightb=1 | open_gop=0 | weightp=1
User data                   keyint=250 | keyint_min=25 | scenecut=40 | intra_refresh=0
User data                   rc_lookahead=30 | rc=abr | mbtree=1 | bitrate=1900 | ratetol=1.0
User data                   qcomp=0.60 | qpmin=0 | qpmax=69 | qpstep=4 | vbv_maxrate=50000
User data                   vbv_bufsize=62500 | nal_hrd=none | filler=0 | ip_ratio=1.40
User data                   aq=1:1.00
SPS id                      0
 Profile                   Main@L4.1
 Num ref frames            4
 Aspect ratio              Square pixels
 Chroma format             YUV 4:2:0
PPS id                      0 (SPS: 0)
 Tipo di codifica entr...  CABAC
 Weighted prediction       P slices - explicit weighted prediction
 Weighted bipred idc       B slices - implicit weighted prediction
 8x8dct                    No
Totale frames               62,115
Drop/delay frames           0
Frames corrotti             0
                           
P-slices                    15832 ( 25.488 %) #####
B-slices                    45576 ( 73.374 %) ###############
I-slices                      707 (  1.138 %)
SP-slices                       0 (  0.000 %)
SI-slices                       0 (  0.000 %)

Analisi DRF

DRF nedio                   17.695758
deviazione standard         4.47448
max DRF                     34
                           
DRF=1                         73 (  0.118 %)
DRF=2                         66 (  0.106 %)
DRF=3                        183 (  0.295 %)
DRF=4                        201 (  0.324 %)
DRF=5                        225 (  0.362 %)
DRF=6                        351 (  0.565 %)
DRF=7                        439 (  0.707 %)
DRF=8                        454 (  0.731 %)
DRF=9                        510 (  0.821 %)
DRF=10                       617 (  0.993 %)
DRF=11                      1067 (  1.718 %)
DRF=12                      1696 (  2.730 %) #
DRF=13                      2434 (  3.919 %) #
DRF=14                      3495 (  5.627 %) #
DRF=15                      5014 (  8.072 %) ##
DRF=16                      6814 ( 10.970 %) ##
DRF=17                      7240 ( 11.656 %) ##
DRF=18                      5863 (  9.439 %) ##
DRF=19                      5487 (  8.834 %) ##
DRF=20                      4612 (  7.425 %) #
DRF=21                      3694 (  5.947 %) #
DRF=22                      2907 (  4.680 %) #
DRF=23                      2628 (  4.231 %) #
DRF=24                      1810 (  2.914 %) #
DRF=25                      1460 (  2.350 %)
DRF=26                      1089 (  1.753 %)
DRF=27                       922 (  1.484 %)
DRF=28                       411 (  0.662 %)
DRF=29                       185 (  0.298 %)
DRF=30                        46 (  0.074 %)
DRF=31                        29 (  0.047 %)
DRF=32                        17 (  0.027 %)
DRF=33                         2 (  0.003 %)
DRF=34                         1 (  0.002 %)
DRF>34                         0 (  0.000 %)
                           
P-slices DRF medio          15.538972
P-slices deviazione std.    4.380033
P-slices max DRF            34
                           
B-slices DRF medio          18.514284
B-slices deviazione std.    4.220465
B-slices max DRF            33
                           
I-slices DRF medio          13.227723
I-slices deviazione std.    3.715546
I-slices max DRF            26

Conformità al profilo

Profilo selezionato         MTK PAL 6000
Risoluzione                 1280 x 720 > 720 x 576
Framerate                   Ok
Buffer underflow            00:00:01 (frame 25)
Buffer underflow            00:00:01 (frame 30)
Buffer underflow            00:02:29 (frame 3730)
Buffer underflow            00:22:25 (frame 33636)

Rapporto creato da AVInaptic (18-12-2011) in data 15-03-2020 18:47:23

]]>
https://ilcorsaronero.link/tor/162450/The_Good_Doctor_Stagione_3__COMPLETA__720p_H264_Ita_Ac3_Eng_Ac3_5_1_Sub_Ita_Eng_MIRCrew https://ilcorsaronero.link/tor/162450/The_Good_Doctor_Stagione_3__COMPLETA__720p_H264_Ita_Ac3_Eng_Ac3_5_1_Sub_Ita_Eng_MIRCrew Sat, 19 Sep 2020 01:41:27 +0300
Il Convento - Heretiks (2018) BluRay 1080p.H264 Ita Eng AC3 5.1 Sub Ita Eng MIRCrew [BDRiP] [Seed (37)/Leech (14)]


All’inizio del 17° secolo, la giovane e innocente Persephone viene falsamente accusata e messa sotto processo. Il suo destino sembra segnato, ma il tempestivo intervento della misteriosa Reverenda Madre le offre non solo un santuario, ma una speranza. La Reverenda Madre è la leader auto-nominatasi di una piccola congrega religiosa, un Priorato isolato, dove le sue sorelle consacrate dedicano le loro vite al Signore e cercano espiazione per il loro passato. Al suo arrivo però, Persephone comincia a essere tormentata da terrificanti visioni e si rende presto conto che non è la salvezza ad attenderla, ma una battaglia per la sua stessa anima.


Rosie Day, Michael Ironside, Hannah Arterton, Clare Higgins, Dilan Gwyn



TITOLO : The Convent (Original Title)
REGIA : Paul Hyett
ANNO :   2018
PAESE : Gran Bretagna, Spagna
DURATA : 81 Min.
GENERE : Horror, Storia
DIMENSIONE : 1.91 Gb















Generale
ID univoco                              : 285768161536642293436772605149964376144 (0xD6FCF2297D8055AAC539245100B39850)
Nome completo                           : The Convent - Heretiks 2018 BluRay 1080p.H264 Ita Eng AC3 5.1 Sub Ita Eng MIRCrew.mkv
Formato                                 : Matroska
Versione formato                        : Version 4
Dimensione                              : 1,91 GiB
Durata                                  : 1 o 20 min
Bitrate totale                          : 3.381 kb/s
Film                                    : Encoded By realDMDJ MIRCrew
Data codifica                           : UTC 2020-09-18 20:02:27
Creato con                              : mkvmerge v49.0.0 ('Sick Of Losing Soulmates&#39 64-bit
Compressore                             : libebml v1.4.0 + libmatroska v1.6.1

Video
ID                                      : 1
Formato                                 : AVC
Formato/Informazioni                    : Advanced Video Codec
Profilo formato                         : High@L4.1
Impostazioni formato                    : CABAC / 4 Ref Frames
Impostazioni formato, CABAC             : Si
Impostazioni formato, RefFrames         : 4 frame
ID codec                                : V_MPEG4/ISO/AVC
Durata                                  : 1 o 20 min
Bitrate                                 : 2.094 kb/s
Larghezza                               : 1.920 pixel
Altezza                                 : 800 pixel
Rapporto aspetto visualizzazione        : 2,40:1
Modalità frame rate                     : Costante
Frame rate                              : 24,000 FPS
Spazio colore                           : YUV
Croma subsampling                       : 4:2:0
Profondità bit                          : 8 bit
Tipo scansione                          : Progressivo
Bit/(pixel*frame)                       : 0.057
Dimensione della traccia                : 1,19 GiB (62%)
Compressore                             : x264 core 157
Default                                 : Si
Forced                                  : No

Audio #1
ID                                      : 2
Formato                                 : AC-3
Formato/Informazioni                    : Audio Coding 3
Nome commereciale                       : Dolby Digital
ID codec                                : A_AC3
Durata                                  : 1 o 20 min
Modalità bitrate                        : Costante
Bitrate                                 : 640 kb/s
Canali                                  : 6 canali
Channel layout                          : L R C LFE Ls Rs
Frequenza campionamento                 : 48,0 kHz
Frame rate                              : 31,250 FPS (1536 SPF)
Modo compressione                       : Con perdita
Ritardo video                           : 998 ms
Dimensione della traccia                : 370MiB (19%)
Lingua                                  : Italiano
Service kind                            : Complete Main
Default                                 : Si
Forced                                  : No

Audio #2
ID                                      : 3
Formato                                 : AC-3
Formato/Informazioni                    : Audio Coding 3
Nome commereciale                       : Dolby Digital
ID codec                                : A_AC3
Durata                                  : 1 o 20 min
Modalità bitrate                        : Costante
Bitrate                                 : 640 kb/s
Canali                                  : 6 canali
Channel layout                          : L R C LFE Ls Rs
Frequenza campionamento                 : 48,0 kHz
Frame rate                              : 31,250 FPS (1536 SPF)
Modo compressione                       : Con perdita
Dimensione della traccia                : 370MiB (19%)
Lingua                                  : Inglese
Service kind                            : Complete Main
Default                                 : No
Forced                                  : No

Testo #1
ID                                      : 4
Formato                                 : UTF-8
ID codec                                : S_TEXT/UTF8
ID codec/Informazioni                   : UTF-8 Plain Text
Durata                                  : 1 o 15 min
Bitrate                                 : 0 b/s
Count of elements                       : 4
Dimensione della traccia                : 53,0 Byte (0%)
Titolo                                  : Forced
Lingua                                  : Italiano
Default                                 : Si
Forced                                  : No

Testo #2
ID                                      : 5
Formato                                 : UTF-8
ID codec                                : S_TEXT/UTF8
ID codec/Informazioni                   : UTF-8 Plain Text
Durata                                  : 1 o 15 min
Bitrate                                 : 46 b/s
Count of elements                       : 668
Dimensione della traccia                : 25,7 KiB (0%)
Lingua                                  : Italiano
Default                                 : No
Forced                                  : No

Testo #3
ID                                      : 6
Formato                                 : UTF-8
ID codec                                : S_TEXT/UTF8
ID codec/Informazioni                   : UTF-8 Plain Text
Durata                                  : 1 o 14 min
Bitrate                                 : 43 b/s
Count of elements                       : 900
Dimensione della traccia                : 23,5 KiB (0%)
Lingua                                  : Inglese
Default                                 : No
Forced                                  : No]]>
https://ilcorsaronero.link/tor/162449/Il_Convento___Heretiks__2018__BluRay_1080p_H264_Ita_Eng_AC3_5_1_Sub_Ita_Eng_MIRCrew https://ilcorsaronero.link/tor/162449/Il_Convento___Heretiks__2018__BluRay_1080p_H264_Ita_Eng_AC3_5_1_Sub_Ita_Eng_MIRCrew Fri, 18 Sep 2020 23:49:37 +0300
Out of Time (2003) AC3 5.1 ITA.ENG 1080p H265 sub NUita.eng Sp33dy94 MIRCrew [BDRiP] [Seed (38)/Leech (12)]




TITOLO:Out of Time
REGIA: Carl Franklin
ANNO:  2003
PAESE: USA
DURATA:1h45m
ATTORI:Denzel Washington, Sanaa Lathan, Eva Mendes  
DIMENSIONE RELEASE:2.68 GB





Matt Lee Whitlock, comandante della polizia di una cittadina della Florida, è rispettato dai colleghi e benvoluto dai cittadini.
Fino a quando una serie di indizi lo indicano come l'autore di un efferato duplice omicidio.
Matt dovrà affrontare una corsa contro il tempo per scoprire la verità ed evitare che il suo nome finisca nella lista degli indagati.
























[spoiler]
Generale
ID univoco                              : 89698362758993594958916154519005540810 (0x437B46BA495401E38FF14C404129B1CA)
Nome completo                           : Out of Time (2003) AC3 5.1 ITA.ENG 1080p H265 sub NUita.eng Sp33dy94-MIRCrew.mkv
Formato                                 : Matroska
Versione formato                        : Version 4
Dimensione                              : 2,68 GiB
Durata                                  : 1 o 45 min
Bitrate totale                          : 3.641 kb/s
Film                                    : Out of Time (2003) AC3 5.1 ITA.ENG 1080p H265 sub NUita.eng Sp33dy94-MIRCrew
Data codifica                           : UTC 2020-09-18 13:10:36
Creato con                              : HandBrake 1.3.3 2020061300
Compressore                             : Lavf58.29.100
ErrorDetectionType                      : Per level 1

Video
ID                                      : 1
Formato                                 : HEVC
Formato/Informazioni                    : High Efficiency Video Coding
Profilo formato                         : Main@L4@Main
ID codec                                : V_MPEGH/ISO/HEVC
Durata                                  : 1 o 45 min
Bitrate                                 : 2.673 kb/s
Larghezza                               : 1.920 pixel
Altezza                                 : 800 pixel
Rapporto aspetto visualizzazione        : 2,40:1
Modalità frame rate                     : Costante
Frame rate                              : 23,976 (24000/1001) FPS
Spazio colore                           : YUV
Croma subsampling                       : 4:2:0
Profondità bit                          : 8 bit
Bit/(pixel*frame)                       : 0.073
Dimensione della traccia                : 1,97 GiB (73%)
Compressore                             : x265 3.2.1+1-b5c86a64bbbe:[Windows][GCC 9.2.0][64 bit] 8bit+10bit+12bit
Default                                 : Si
Forced                                  : No
Color range                             : Limited
Colori primari                          : BT.709
Caratteristiche trasferimento           : BT.709
Coefficienti matrici                    : BT.709

Audio #1
ID                                      : 2
Formato                                 : AC-3
Formato/Informazioni                    : Audio Coding 3
Nome commereciale                       : Dolby Digital
ID codec                                : A_AC3
Durata                                  : 1 o 45 min
Modalità bitrate                        : Costante
Bitrate                                 : 448 kb/s
Canali                                  : 6 canali
Channel layout                          : L R C LFE Ls Rs
Frequenza campionamento                 : 48,0 kHz
Frame rate                              : 31,250 FPS (1536 SPF)
Modo compressione                       : Con perdita
Dimensione della traccia                : 338MiB (12%)
Titolo                                  : AC3 5.1 ITA
Lingua                                  : Italiano
Service kind                            : Complete Main
Default                                 : Si
Forced                                  : No

Audio #2
ID                                      : 3
Formato                                 : AC-3
Formato/Informazioni                    : Audio Coding 3
Nome commereciale                       : Dolby Digital
ID codec                                : A_AC3
Durata                                  : 1 o 45 min
Modalità bitrate                        : Costante
Bitrate                                 : 448 kb/s
Canali                                  : 6 canali
Channel layout                          : L R C LFE Ls Rs
Frequenza campionamento                 : 48,0 kHz
Frame rate                              : 31,250 FPS (1536 SPF)
Modo compressione                       : Con perdita
Dimensione della traccia                : 338MiB (12%)
Titolo                                  : AC3 5.1 ENG
Lingua                                  : Inglese
Service kind                            : Complete Main
Default                                 : No
Forced                                  : No

Testo #1
ID                                      : 4
Formato                                 : ASS
ID codec                                : S_TEXT/ASS
ID codec/Informazioni                   : Advanced Sub Station Alpha
Durata                                  : 1 o 42 min
Modo compressione                       : Senza perdita
Titolo                                  : ITA Completi
Lingua                                  : Italiano
Default                                 : No
Forced                                  : No

Testo #2
ID                                      : 5
Formato                                 : ASS
ID codec                                : S_TEXT/ASS
ID codec/Informazioni                   : Advanced Sub Station Alpha
Durata                                  : 1 o 42 min
Modo compressione                       : Senza perdita
Titolo                                  : ENG Full
Lingua                                  : Inglese
Default                                 : No
Forced                                  : No

Menu
00:00:00.000                            : :Main Title
00:07:33.912                            : :An Ugly Burglar
00:11:52.128                            : :"I Don't Want To"
00:14:42.090                            : :Not Worth the Fight
00:17:59.203                            : :Half a Foursome
00:22:24.301                            : :A Terminal Setback
00:26:02.311                            : :Extra Insurance
00:29:42.698                            : :The Living Gift
00:34:37.158                            : :Only Two Days to Switch
00:39:02.549                            : :Hypothetical Threats
00:43:40.910                            : :Ann's Farewell Present...
00:47:16.542                            : :...And Matt's
00:51:52.067                            : ast Eleven
00:59:48.460                            : efinitely Arson
01:04:07.177                            : :What the Dentist Knows
01:13:47.423                            : :Clean Bill of Health
01:17:45.452                            : :Somewhat Positive ID
01:20:48.344                            : :Messing Up the Evidence
01:26:13.126                            : :Whose Phone Is It?
01:31:08.797                            : :Motive and Opportunity
01:36:17.855                            : :On Cabot's Trail
01:42:45.159                            : :"I Meant Five Seconds"


[/spoiler]]]>
https://ilcorsaronero.link/tor/162448/Out_of_Time__2003__AC3_5_1_ITA_ENG_1080p_H265_sub_NUita_eng_Sp33dy94_MIRCrew https://ilcorsaronero.link/tor/162448/Out_of_Time__2003__AC3_5_1_ITA_ENG_1080p_H265_sub_NUita_eng_Sp33dy94_MIRCrew Fri, 18 Sep 2020 22:43:14 +0300
La Conversazione (1974 ITA/ENG) [1080p x265] [Paso77] [BDRiP] [Seed (1)/Leech (69)]





VERSIONE ESTESA NON DOPPIATA

ORIGINAL SUB .sup
https://mega.nz/folder/rBw3yQKC#gjIc_C4Mx8vc9-BCdGTOtA

Titolo originale The Conversation
Lingua originale inglese
Paese di produzione Stati Uniti d'America
Anno 1974
Durata 113 min
Rapporto 1,85:1
Genere drammatico, thriller
Regia Francis Ford Coppola

CAST

Gene Hackman: Harry Caul
John Cazale: Stan
Allen Garfield: Bernie Moran
Frederic Forrest: Mark, amante di Ann
Cindy Williams: Ann, moglie del direttore
Michael Higgins: Paul
Elizabeth MacRae: Meredith
Teri Garr: Amy Fredericks
Harrison Ford: Martin Stett
Robert Duvall: Il direttore (non accreditato)



San Francisco. Harry Caul è un investigatore privato ed esperto di sorveglianza intercettazioni, con una spiccata ossessione paranoica per la privacy. Il suo appartamento è quasi totalmente spoglio ed è dotato di una porta a tripla serratura. Il suo laboratorio è ricavato in uno spazio delimitato da un reticolato all'interno di un capannone. Estremamente professionale ma con evidenti disturbi di socialità, Harry cerca di evitare il più possibile coinvolgimenti di tipo affettivo e confidenziale....









[spoiler]


[ Info sul file ]

Nome: The Conversation 1974 BDRip ITA ENG 1080p x265 Paso77.mkv
Data: Thu, 17 Sep 2020 19:16:34 +0200
Dimensione: 7,099,288,677 bytes (6770.409276 MiB)
Nota: L'analisi non è completa

[ Magic ]

Tipo file: data

[ Info generiche ]

Durata: 01:54:21 (6860.818 s)
Contenitore: matroska
Production date: Thu, 17 Sep 2020 19:15:00 +0200
Totale tracce: 6
Traccia n. 1: video (V_MPEGH/ISO/HEVC) [BDRip Paso77] {und}
Traccia n. 2: audio (A_AC3) [ITA] {ita}
Traccia n. 3: audio (A_AC3) [ENG] {eng}
Traccia n. 4: subtitle (S_TEXT/UTF [ITA FORCED] {ita}
Traccia n. 5: subtitle (S_HDMV/PGS) [ITA] {ita}
Traccia n. 6: subtitle (S_HDMV/PGS) [ENG SDH] {eng}
Muxing library: libebml v1.4.0 + libmatroska v1.6.2
Writing application: mkvmerge v50.0.0 ('Awakenings&#39 64-bit

[ Traccia video ]

Codec ID: V_MPEGH/ISO/HEVC
Risoluzione: 1920 x 1038
Frame aspect ratio: 320:173 = 1.849711 (~1.85:1)
Pixel aspect ratio: 1:1 = 1
Display aspect ratio: 320:173 = 1.849711 (~1.85:1)
Framerate: 23.976024 fps

[ Traccia audio nr. 1 ]

Codec ID: A_AC3
Freq. campionamento: 48000 Hz
Canali: 2
Tipo di bitstream (bs): AC3
Bitrate (bs): 640 kbps CBR
Freq. campionamento (bs): 48000 Hz
Modo (bs): stereo

[ Traccia audio nr. 2 ]

Codec ID: A_AC3
Freq. campionamento: 48000 Hz
Canali: 6
Tipo di bitstream (bs): AC3
Bitrate (bs): 640 kbps CBR
Freq. campionamento (bs): 48000 Hz
Modo (bs): 3 front, 2 rear, 1 LFE

[ Edition entry ]

UID: 2336924674949679625
Nascosto: No
Selezionato di default: Sì
Playlist: No
Capitoli:
00:00:00,000-00:10:53,278: Chapter 1 {und}
00:10:53,278-00:20:33,524: Chapter 2 {und}
00:20:33,524-00:32:18,770: Chapter 3 {und}
00:32:18,770-00:42:01,352: Chapter 4 {und}
00:42:01,352-00:52:41,909: Chapter 5 {und}
00:52:41,909-01:02:33,250: Chapter 6 {und}
01:02:33,250-01:17:12,128: Chapter 7 {und}
01:17:12,128-01:24:55,716: Chapter 8 {und}
01:24:55,716-01:37:10,074: Chapter 9 {und}
01:37:10,074-01:43:19,902: Chapter 10 {und}
01:43:19,902-01:53:10,701: Chapter 11 {und}
01:53:10,701-01:54:06,757: Chapter 12 {und}
01:54:06,757-01:54:20,813: Chapter 13 {und}

Rapporto creato da AVInaptic (18-12-2011) in data 17-09-2020 19:19:40


[/spoiler]











[/center]]]>
https://ilcorsaronero.link/tor/162447/La_Conversazione__1974_ITA_ENG___1080p_x265___Paso77_ https://ilcorsaronero.link/tor/162447/La_Conversazione__1974_ITA_ENG___1080p_x265___Paso77_ Fri, 18 Sep 2020 22:12:28 +0300